(Gothic) Nenia C\'alladhan - Nenia C\'alladhan - 2001, APE (image+.cue), lossless

Ответить на тему
Статистика раздачи [Обновить пиров]
Размер:  383 MB   |    Зарегистрирован:  1 год   |    Скачан:  0 раз

Полного источника не было: Никогда

 
   
 
 
 
Автор Сообщение

torrentc.info

Создавать темы 16-Ноя-2017 12:54

[Цитировать]

Nenia C'alladhan
Страна: Germany
Жанр: Gothic
Год выхода: 2001
Формат файла: APE (image + .cue)
Битрейт аудио: lossless
Продолжительность: 1:04:08
Трэклист:
1. An die Sterne
2. Die Stimme im Sturm
3. Schwarzer Spiegel
4. Schattengesang
5. Der See des Vergessens
6. Sternblumennacht
7. Schwarzer Spiegel II
8. Lied der Todesfee
9. Sternblumennacht (A Little Closer To The Original-Version)
Доп. информация:
Альбом гениальный - и музыкой, и самой концепцией. для пущей интриги сообщу сразу - это новый проект anna-varney SOPOR AETERNUS . ну, а теперь обо всём по порядку. последний альбом SOPOR AETERNUS "songs from the inverted WOMB в чём только не обвиняли - и во вторичности, и в самокопировании, и даже в "продажности" - из-за того, что практически все композиции диска были исполнены на английском языке. хотя все эти обвинения скорее следствия, следствия одного факта - многие уже сыты SOPOR AETERNUS ом по горло - невозможно из года в год выпускать одно и то же и при этом рассчитывать на адекватную реакцию публики (конечно, это не касается групп типа ac/dc). казалось бы, ситуация тупиковая, однако нам опять был продемонстрирован недюжинный талант, на этот раз "промоутерского" характера. видимо, логика была такой - пусть SOPOR AETERNUS и дальше будет традиционным проектом с лирикой на английском, а вот для разнообразия - сделаем-ка мы сайд-проект! решение действительно гениальное, но тут уже пришлось пустить в ход талант музыкальный, а анну-варни в недостатке оного трудно уличить. и вот перед нами nenia c’alladhan - официально представляемый как совместный проект anna-varney и вокалистки/лютнистки из ensemble of shadows constance frohling, которая вроде бы и является автором музыки и лирики. насчёт лирики не скажу - в немецком не силён, а вот насчёт музыки закрадываются сомнения - так как фактически это тот же самый SOPOR AETERNUS но немного под другим соусом. основа та же - сказочно-колыбельный gothic folk - однако вместо ужасных и зловещих страшилок нам теперь рассказывают величественные и печальные поэмы о героях, рыцарях, волшебниках и т.п. - то есть налицо определенная смена полюса. депрессивной или мрачной эту музыку никак нельзя назвать, конечно, особой радости и веселья тут тоже не наблюдается - так, лишь легкая меланхолия. своеобразная фишка связана и с вокалами - anna-varney тут не завывает, как инфернальное создание, в просто-напросто поёт - вполне красивым вокалом, в качестве вокального аккомпанемента выступает вышеупомянутая констанция, ну, с ней и так всё ясно - простой, довольно фолковый вокал. иногда поют дуэтом, но, конечно, 80% вокала принадлежит культовой готической "иконе". вроде бы изменения не кардинальные, но на восприятие действуют по полной программе - после прослушивания реакция у всех одна - просто шедевр! так что о том, что данный релиз рекомендуется всем поклонникам SOPOR AETERNUS я уже и не говорю - это и так всем очевидно, однако и любителям различных "нео-фолков", ранее сопором брезговавших, диск тоже рекомендуется - есть вероятность, что он им приглянется.
Рецензия reviews.gothicmusic.org

Отчёт EAC

Exact Audio Copy V0.99 prebeta 3 from 28. July 2007
Отчёт EAC об извлечении, выполненном 26. октября 2007, 18:57
Nenia C'alladhan / Nenia C'alladhan
Дисковод: PIONEER DVD-RW DVR-111D Adapter: 0 ID: 1
Режим чтения : ДостоверностьИспользование точного потока : ДаОтключение кэша аудио : ДаИспользование указателей C2 : Нет
Коррекция смещения при чтении : 48Способность читать области Lead-in и Lead-out : НетЗаполнение пропущенных сэмплов тишиной : ДаУдаление блоков с тишиной в начале и конце : НетПри вычислениях CRC использовались нулевые сэмплы : НетИнтерфейс : Установленный внешний ASPI-интерфейс
Выходной формат : Внутренние WAV-операцииФормат файла сэмплов : 44.100 Гц; 16 бит; стерео
TOC извлечённого CD
Трек | Старт | Длительность | Начальный сектор | Конечный сектор --------------------------------------------------------------------- 1 | 0:00.00 | 5:41.55 | 0 | 25629 2 | 5:41.55 | 8:54.00 | 25630 | 65679 3 | 14:35.55 | 3:44.25 | 65680 | 82504 4 | 18:20.05 | 8:12.71 | 82505 | 119475 5 | 26:33.01 | 10:02.28 | 119476 | 164653 6 | 36:35.29 | 11:06.29 | 164654 | 214632 7 | 47:41.58 | 2:21.45 | 214633 | 225252 8 | 50:03.28 | 3:05.19 | 225253 | 239146 9 | 53:08.47 | 11:00.07 | 239147 | 288653
Характеристики диапазона извлечения и сообщения об ошибках
Выбранный диапазон
Имя файла D:\Audio_Temp\Nenia C'alladhan - Nenia C'alladhan\Nenia C'alladhan - Nenia C'alladhan.wav
Пиковый уровень 98.8 % Качество диапазона 100.0 % CRC копии A1F708EC Копирование... OK
Ошибок не произошло
AccurateRip: сводка
Трек 1 нет в базе данныхТрек 2 нет в базе данныхТрек 3 нет в базе данныхТрек 4 нет в базе данныхТрек 5 нет в базе данныхТрек 6 нет в базе данныхТрек 7 нет в базе данныхТрек 8 нет в базе данныхТрек 9 нет в базе данных
Ни одного трека нет в базе AccurateRip
Конец отчёта


[torrentc.info]_t_459524.torrent
Торрент: Зарегистрирован ·  [ 2017-11-16 12:54 ] ·  fdeb8d6bb9d95837eb642313ab2174411988cb5d

16 KB

Статус: проверено
Скачан: 0 раз
Размер: 383 MB
Оценка: 
(Голосов: 0)
Сказали спасибо: 0  Спасибо
Похожие темы
[Профиль]    [ЛС]
Показать сообщения:    
Ответить на тему

Текущее время: Сегодня 19:49

Часовой пояс: GMT + 7



Вы не можете начинать темы
Вы не можете отвечать на сообщения
Вы не можете редактировать свои сообщения
Вы не можете удалять свои сообщения
Вы не можете голосовать в опросах
Вы не можете прикреплять файлы к сообщениям
Вы можете скачивать файлы