(Darkwave, Gothic, Neo Folk, Ethereal) Engelsstaub - Discography (4 CD), 1993-1999, APE (image+.cue), lossless

Ответить на тему
Статистика раздачи [Обновить пиров]
Размер:  1.01 GB   |    Зарегистрирован:  9 месяцев   |    Скачан:  0 раз

Полного источника не было: Никогда

Личеров:  1  [  0 KB/s  ]   Подробная статистика скачивающих
 
   
 
 
 
Автор Сообщение

torrentc.info

Создавать темы 16-Ноя-2017 12:54

[Цитировать]

Engelsstaub - Malleus Maleficarum
Жанр: Darkwave, Gothic, Neo Folk, Ethereal
Год выхода: 1993
Производитель диска: Germany
Аудио кодек: APE
Тип рипа: (image + .cue)
Битрейт аудио: lossless
Продолжительность: 48:18
Трэклист:
01 Intro: The Birth Of An Angel
02 Kissed By God
03 The Decay Of Flesh
04 Skin Me Alive
05 The Eden Of Pain Or Pleasure
06 Lost Purity
07 Fallen Angel
08 Sacrificium
09 We Die A Martyr To God
10 Modlitewnik I
11 Modlitewnik II
12 Epilogue

Отчёт EAC

Exact Audio Copy V0.99 prebeta 4 from 23. January 2008
Отчёт EAC об извлечении, выполненном 14. мая 2008, 20:56
Engelsstaub / Malleus Maleficarum
Дисковод: PIONEER DVD-RW DVR-111D Adapter: 0 ID: 1
Режим чтения : ДостоверностьИспользование точного потока : ДаОтключение кэша аудио : ДаИспользование указателей C2 : Нет
Коррекция смещения при чтении : 48Способность читать области Lead-in и Lead-out : НетЗаполнение пропущенных сэмплов тишиной : ДаУдаление блоков с тишиной в начале и конце : НетПри вычислениях CRC использовались нулевые сэмплы : НетИнтерфейс : Установленный внешний ASPI-интерфейс
Выходной формат : Внутренние WAV-операцииФормат файла сэмплов : 44.100 Гц; 16 бит; стерео
TOC извлечённого CD
Трек | Старт | Длительность | Начальный сектор | Конечный сектор --------------------------------------------------------------------- 1 | 0:00.00 | 2:34.17 | 0 | 11566 2 | 2:34.17 | 3:52.20 | 11567 | 28986 3 | 6:26.37 | 2:17.03 | 28987 | 39264 4 | 8:43.40 | 4:49.47 | 39265 | 60986 5 | 13:33.12 | 3:52.35 | 60987 | 78421 6 | 17:25.47 | 4:36.33 | 78422 | 99154 7 | 22:02.05 | 3:35.32 | 99155 | 115311 8 | 25:37.37 | 4:45.30 | 115312 | 136716 9 | 30:22.67 | 3:58.18 | 136717 | 154584 10 | 34:21.10 | 4:12.72 | 154585 | 173556 11 | 38:34.07 | 6:18.18 | 173557 | 201924 12 | 44:52.25 | 3:25.62 | 201925 | 217361
Характеристики диапазона извлечения и сообщения об ошибках
Выбранный диапазон
Имя файла L:\00\Engelsstaub - Malleus Maleficarum\Engelsstaub - Malleus Maleficarum.wav
Пиковый уровень 100.0 % Качество диапазона 100.0 % CRC копии AFD78DCA Копирование... OK
Ошибок не произошло
AccurateRip: сводка
Трек 1 нет в базе данныхТрек 2 нет в базе данныхТрек 3 нет в базе данныхТрек 4 нет в базе данныхТрек 5 нет в базе данныхТрек 6 нет в базе данныхТрек 7 нет в базе данныхТрек 8 нет в базе данныхТрек 9 нет в базе данныхТрек 10 нет в базе данныхТрек 11 нет в базе данныхТрек 12 нет в базе данных
Ни одного трека нет в базе AccurateRip
Конец отчёта
Engelsstaub - Ignis Fatuus Irrlichter
Жанр: Darkwave, Gothic, Neo Folk, Ethereal
Год выхода диска: 1994
Производитель диска: Germany
Аудио кодек: APE
Тип рипа: (image + .cue)
Битрейт аудио: lossless
Продолжительность: 43:52
Трэклист:
01 Prolgue: The Gate
02 Dream Demon
03 The Change of The Moon
04 Per Aspera et Astra
05 Ignis Fatuus (Irrlichter part I)
06 Victim of Love
07 Serce Aniola
08 Phantasmagoria
09 Epilogue (Irrlichter part II)

Отчёт EAC

Exact Audio Copy V0.99 prebeta 4 from 23. January 2008
Отчёт EAC об извлечении, выполненном 14. мая 2008, 20:46
Engelsstaub / Ignis Fatuus: Irrlichter
Дисковод: PIONEER DVD-RW DVR-111D Adapter: 0 ID: 1
Режим чтения : ДостоверностьИспользование точного потока : ДаОтключение кэша аудио : ДаИспользование указателей C2 : Нет
Коррекция смещения при чтении : 48Способность читать области Lead-in и Lead-out : НетЗаполнение пропущенных сэмплов тишиной : ДаУдаление блоков с тишиной в начале и конце : НетПри вычислениях CRC использовались нулевые сэмплы : НетИнтерфейс : Установленный внешний ASPI-интерфейс
Выходной формат : Внутренние WAV-операцииФормат файла сэмплов : 44.100 Гц; 16 бит; стерео
TOC извлечённого CD
Трек | Старт | Длительность | Начальный сектор | Конечный сектор --------------------------------------------------------------------- 1 | 0:00.00 | 2:55.32 | 0 | 13156 2 | 2:55.32 | 4:54.03 | 13157 | 35209 3 | 7:49.35 | 3:26.73 | 35210 | 50732 4 | 11:16.33 | 9:40.07 | 50733 | 94239 5 | 20:56.40 | 3:55.58 | 94240 | 111922 6 | 24:52.23 | 4:05.12 | 111923 | 130309 7 | 28:57.35 | 3:17.58 | 130310 | 145142 8 | 32:15.18 | 8:46.62 | 145143 | 184654 9 | 41:02.05 | 2:49.35 | 184655 | 197364
Характеристики диапазона извлечения и сообщения об ошибках
Выбранный диапазон
Имя файла L:\00\Engelsstaub - Ignis Fatuus Irrlichter\Engelsstaub - Ignis Fatuus Irrlichter.wav
Пиковый уровень 99.0 % Качество диапазона 100.0 % CRC копии 60A4DFBF Копирование... OK
Ошибок не произошло
AccurateRip: сводка
Трек 1 нет в базе данныхТрек 2 нет в базе данныхТрек 3 нет в базе данныхТрек 4 нет в базе данныхТрек 5 нет в базе данныхТрек 6 нет в базе данныхТрек 7 нет в базе данныхТрек 8 нет в базе данныхТрек 9 нет в базе данных
Ни одного трека нет в базе AccurateRip
Конец отчёта
Engelsstaub - Unholy
Жанр: Darkwave, Gothic, Neo Folk, Ethereal
Год выхода диска: 1997
Производитель диска: Germany
Аудио кодек: APE
Тип рипа: (image + .cue)
Битрейт аудио: lossless
Продолжительность: 30:56
Трэклист:
1. Lost Purity (4:38)
2. Ignis Fatuus Pt. 1 (3:54)
3. Finy Of Ice (3:54)
4. Per Aspera Ad Astra (5:43)
5. Skin Me Alive (6:26)
6. Fallen Angel (6:19)

Отчёт EAC

Exact Audio Copy V0.99 prebeta 4 from 23. January 2008
Отчёт EAC об извлечении, выполненном 18. июня 2008, 19:34
Engelstaub / Unholy
Дисковод: PIONEER DVD-RW DVR-111D Adapter: 0 ID: 1
Режим чтения : ДостоверностьИспользование точного потока : ДаОтключение кэша аудио : ДаИспользование указателей C2 : Нет
Коррекция смещения при чтении : 48Способность читать области Lead-in и Lead-out : НетЗаполнение пропущенных сэмплов тишиной : ДаУдаление блоков с тишиной в начале и конце : НетПри вычислениях CRC использовались нулевые сэмплы : НетИнтерфейс : Встроенный Win32-интерфейс для Win NT/2000
Выходной формат : Внутренние WAV-операцииФормат файла сэмплов : 44.100 Гц; 16 бит; стерео
TOC извлечённого CD
Трек | Старт | Длительность | Начальный сектор | Конечный сектор --------------------------------------------------------------------- 1 | 0:00.00 | 4:38.21 | 0 | 20870 2 | 4:38.21 | 3:54.20 | 20871 | 38440 3 | 8:32.41 | 3:54.68 | 38441 | 56058 4 | 12:27.34 | 5:43.08 | 56059 | 81791 5 | 18:10.42 | 6:26.21 | 81792 | 110762 6 | 24:36.63 | 6:19.44 | 110763 | 139231
Характеристики диапазона извлечения и сообщения об ошибках
Выбранный диапазон
Имя файла L:\00\Engelsstaub - Unholy\Engelsstaub - Unholy.wav
Пиковый уровень 100.0 % Качество диапазона 100.0 % CRC копии 33FEB98F Копирование... OK
Ошибок не произошло
AccurateRip: сводка
Трек 1 нет в базе данныхТрек 2 нет в базе данныхТрек 3 нет в базе данныхТрек 4 нет в базе данныхТрек 5 нет в базе данныхТрек 6 нет в базе данных
Ни одного трека нет в базе AccurateRip
Конец отчёта
Engelsstaub - Anderswelt
Жанр: Darkwave, Gothic, Neo Folk, Ethereal
Год выхода: 1999
Производитель диска: Germany
Аудио кодек: APE
Тип рипа: (image + .cue)
Битрейт аудио: lossless
Продолжительность: 48:06
Трэклист:
01 Dreamcatcher
02 A Dream Within A Dream
03 A Tale
04 L'Appel De l'Ange
05 Faerieland
06 The Kingdom Of Blindness
07 Die Erlцsung
08 A Spirit Awakens
09 Namiros

Отчёт EAC

Exact Audio Copy V0.99 prebeta 4 from 23. January 2008
Отчёт EAC об извлечении, выполненном 10. мая 2008, 23:41
Engelsstaub / Anderswelt
Дисковод: PIONEER DVD-RW DVR-111D Adapter: 0 ID: 1
Режим чтения : ДостоверностьИспользование точного потока : ДаОтключение кэша аудио : ДаИспользование указателей C2 : Нет
Коррекция смещения при чтении : 48Способность читать области Lead-in и Lead-out : НетЗаполнение пропущенных сэмплов тишиной : ДаУдаление блоков с тишиной в начале и конце : НетПри вычислениях CRC использовались нулевые сэмплы : НетИнтерфейс : Установленный внешний ASPI-интерфейс
Выходной формат : Внутренние WAV-операцииФормат файла сэмплов : 44.100 Гц; 16 бит; стерео
TOC извлечённого CD
Трек | Старт | Длительность | Начальный сектор | Конечный сектор --------------------------------------------------------------------- 1 | 0:00.00 | 5:39.07 | 0 | 25431 2 | 5:39.07 | 6:40.63 | 25432 | 55494 3 | 12:19.70 | 4:13.70 | 55495 | 74539 4 | 16:33.65 | 4:42.00 | 74540 | 95689 5 | 21:15.65 | 5:24.37 | 95690 | 120026 6 | 26:40.27 | 3:15.20 | 120027 | 134671 7 | 29:55.47 | 5:24.30 | 134672 | 159001 8 | 35:20.02 | 5:38.63 | 159002 | 184414 9 | 40:58.65 | 7:06.70 | 184415 | 216434
Характеристики диапазона извлечения и сообщения об ошибках
Выбранный диапазон
Имя файла L:\00\Engelsstaub - Anderswelt\Engelsstaub - Anderswelt.wav
Пиковый уровень 100.0 % Качество диапазона 100.0 % CRC копии C449E87F Копирование... OK
Ошибок не произошло
AccurateRip: сводка
Трек 1 нет в базе данныхТрек 2 нет в базе данныхТрек 3 нет в базе данныхТрек 4 нет в базе данныхТрек 5 нет в базе данныхТрек 6 нет в базе данныхТрек 7 нет в базе данныхТрек 8 нет в базе данныхТрек 9 нет в базе данных
Ни одного трека нет в базе AccurateRip
Конец отчёта

Рецензия Russian Gothic Page 2000 года

"...об ENGELSSTAUB до сих пор довольно часто вспоминают - и не удивительно, два первых диска - "Malleus Maleficarum" и "Ignis Fatuus: Irrlichter" были очень сильными. Но время шло, а новых альбомов все не было... Потом была EP-шка "Unholy" со старым материалом и вот теперь первый полноценный альбом ENGELSSTAUB после 6-и летнего перерыва, После выхода мини CD "Unholy" я был уверен что группа окончательно умерла и приступая к прослушиванию новго альбома я честно говоря ожидал худшего. Но все оказалось гораздо интересней - во-первых основная часть вокальных патрий теперь женская, вокал очень хороший, медитативный, мужской вокал проявляется только эпизодически, (и жаловатся я на него не буду - и в старых дисках мужской вокал был хорош и на этом не подкачал) хотя в некоторых композициях он выходит на первый план. Музыка же крайне разнообразна, от фолково-мидеевальных пассажей (неожиданно переходящий в нео-симфонизм в духе END OF ORGY) и плавных медитативных композиций (ближе к ENDRAUM) до тягучего мрачного darkwave (с налетом нео-классицизма) и dark folk (ближе к первым дискам ENGELSSTAUB). Общее звучание - бравурно-трагичное (местами даже пафосное), ну и при этом - крайне готичное. Большая часть композиций однозначные хиты, и несмотря на кажущуюся эклектичность музыкального материала все воспринимается очень цельно и концептуально."


[torrentc.info]_t_944511.torrent
Торрент: Зарегистрирован ·  [ 2017-11-16 12:54 ] ·  8520b77622683b31567f4efcca554e015b6e65f4

13 KB

Статус: проверено
Скачан: 0 раз
Размер: 1.01 GB
Оценка: 
(Голосов: 0)
Сказали спасибо: 0  Спасибо
Похожие темы
[Профиль]    [ЛС]
Показать сообщения:    
Ответить на тему

Текущее время: Сегодня 10:19

Часовой пояс: GMT + 7



Вы не можете начинать темы
Вы не можете отвечать на сообщения
Вы не можете редактировать свои сообщения
Вы не можете удалять свои сообщения
Вы не можете голосовать в опросах
Вы не можете прикреплять файлы к сообщениям
Вы можете скачивать файлы