(Ethereal, Darkwave) Lycia - Estrella - 1998 (Remastered 2005), FLAC (tracks+.cue), lossless

Ответить на тему
Статистика раздачи [Обновить пиров]
Размер:  357 MB   |    Зарегистрирован:  7 месяцев 7 дней   |    Скачан:  0 раз

Полного источника не было: Никогда

Личеров:  1  [  0 KB/s  ]   Подробная статистика скачивающих
 
   
 
 
 
Автор Сообщение

torrentc.info

Создавать темы 15-Ноя-2017 20:27

[Цитировать]

Lycia - Estrella
Label: Silber Records
Catalog#: silber 040
Format: CD, Album, Remastered
Country: US
Released: 2005
Genre: Electronic, Rock
Style: Ethereal, Darkwave
Notes: Remastered version of the 1998 album.
Продолжительность: 57:16
Tracklisting:
1 Clouds In The Southern Sky (3:40)
2 El Diablo (4:28)
3 Tainted (5:40)
4 Tongues (3:24)
5 Estrella (6:16)
6 Dome (2:31)
7 Silver Sliver (5:45)
8 The Canal (6:11)
9 The Kite (5:34)
10 Orion (6:35)
11 Distant Fading Star (6:55)

EAC Log

EAC extraction logfile from 16. March 2007, 9:29 for CDLycia / Estrella (Remastered)
Used drive : LITE-ON LTR-52327S Adapter: 0 ID: 0Read mode : Secure with NO C2, accurate stream, disable cacheRead offset correction : 6Overread into Lead-In and Lead-Out : No
Used output format : C:\Program Files\FLAC\flac.exe (User Defined Encoder) 128 kBit/s Additional command line options : -V -8 -T "artist=%a" -T "title=%t" -T "album=%g" -T "date=%y" -T "tracknumber=%n" -T "genre=%m" %s
Other options : Fill up missing offset samples with silence : Yes Delete leading and trailing silent blocks : No Installed external ASPI interface
Track 1 Filename K:\Lossless\Lycia - Estrella (Remastered)\01 - Clouds In The Southern Sky.wav
Pre-gap length 0:00:02.00
Peak level 98.8 % Track quality 100.0 % Test CRC BACFA64D Copy CRC BACFA64D Copy OK
Track 2 Filename K:\Lossless\Lycia - Estrella (Remastered)\02 - El Diablo.wav
Pre-gap length 0:00:01.06
Peak level 98.8 % Track quality 100.0 % Test CRC EC1CE084 Copy CRC EC1CE084 Copy OK
Track 3 Filename K:\Lossless\Lycia - Estrella (Remastered)\03 - Tainted.wav
Pre-gap length 0:00:01.03
Peak level 98.8 % Track quality 100.0 % Test CRC C8CDA5FC Copy CRC C8CDA5FC Copy OK
Track 4 Filename K:\Lossless\Lycia - Estrella (Remastered)\04 - Tongues.wav
Pre-gap length 0:00:00.58
Peak level 98.8 % Track quality 100.0 % Test CRC 995F05DC Copy CRC 995F05DC Copy OK
Track 5 Filename K:\Lossless\Lycia - Estrella (Remastered)\05 - Estrella.wav
Pre-gap length 0:00:00.65
Peak level 98.8 % Track quality 100.0 % Test CRC B7338785 Copy CRC B7338785 Copy OK
Track 6 Filename K:\Lossless\Lycia - Estrella (Remastered)\06 - Dome.wav
Pre-gap length 0:00:01.00
Peak level 98.8 % Track quality 100.0 % Test CRC 00E81ABF Copy CRC 00E81ABF Copy OK
Track 7 Filename K:\Lossless\Lycia - Estrella (Remastered)\07 - Silver Streak.wav
Pre-gap length 0:00:00.59
Peak level 99.6 % Track quality 100.0 % Test CRC 32D9AEB9 Copy CRC 32D9AEB9 Copy OK
Track 8 Filename K:\Lossless\Lycia - Estrella (Remastered)\08 - The Canal.wav
Pre-gap length 0:00:01.03
Peak level 99.6 % Track quality 100.0 % Test CRC 7E29184A Copy CRC 7E29184A Copy OK
Track 9 Filename K:\Lossless\Lycia - Estrella (Remastered)\09 - The Kite.wav
Pre-gap length 0:00:01.03
Peak level 98.8 % Track quality 100.0 % Test CRC 7DA00BC2 Copy CRC 7DA00BC2 Copy OK
Track 10 Filename K:\Lossless\Lycia - Estrella (Remastered)\10 - Orion.wav
Pre-gap length 0:00:00.53
Peak level 98.8 % Track quality 100.0 % Test CRC 40386856 Copy CRC 40386856 Copy OK
Track 11 Filename K:\Lossless\Lycia - Estrella (Remastered)\11 - Distant Fading Star.wav
Pre-gap length 0:00:01.04
Peak level 99.6 % Track quality 100.0 % Test CRC 4C9115C4 Copy CRC 4C9115C4 Copy OK
No errors occured
End of status report


[torrentc.info]_t_1120708.torrent
Торрент: Зарегистрирован ·  [ 2017-11-15 20:24 ] ·  6c8ddd9fcb306579ff333f6e2427556d93505d0a

15 KB

Статус: проверено
Скачан: 0 раз
Размер: 357 MB
Оценка: 
(Голосов: 0)
Сказали спасибо: 0  Спасибо
Похожие темы
[Профиль]    [ЛС]
Показать сообщения:    
Ответить на тему

Текущее время: Сегодня 09:54

Часовой пояс: GMT + 7



Вы не можете начинать темы
Вы не можете отвечать на сообщения
Вы не можете редактировать свои сообщения
Вы не можете удалять свои сообщения
Вы не можете голосовать в опросах
Вы не можете прикреплять файлы к сообщениям
Вы можете скачивать файлы