(IDM, Downtempo, Ambient) [CD] upStructure - First Morning Together - 2007, FLAC (image+.cue), lossless

Ответить на тему
Статистика раздачи [Обновить пиров]
Размер:  435 MB   |    Зарегистрирован:  6 месяцев 7 дней   |    Скачан:  0 раз

Полного источника не было: Никогда

 
   
 
 
 
Автор Сообщение

torrentc.info

Создавать темы 15-Ноя-2017 20:27

[Цитировать]

upStructure / First Morning Together
Жанр: IDM, Downtempo, Ambient
Носитель: CD
Год издания: 2007
Издатель (лейбл): SHUM Records
Номер по каталогу: Shum cd 71
Аудиокодек: FLAC (*.flac)
Тип рипа: image+.cue
Битрейт аудио: lossless
Продолжительность: 53:45
Источник (релизер): собственный рип
Наличие сканов в содержимом раздачи: да
Треклист:
01. upStructure - In Dust [5:30]
02. upStructure - First Morning Together [4:46]
03. upStructure - Menthal Wealth [4:20]
04. upStructure - Caravan [3:33]
05. upStructure - Point Of View [5:03]
06. upStructure - Dolphins Survived [4:23]
07. upStructure - Once [4:38]
08. upStructure - In Out [4:43]
09. upStructure - Upstructures [4:21]
10. upStructure - Warmer [4:00]
11. upStructure - PolyGone [4:21]
12. upStructure - Thundra [4:07]

Лог создания рипа

Exact Audio Copy V1.3 from 2. September 2016
EAC extraction logfile from 11. March 2017, 1:08
upStructure / First Morning Together
Used drive : ASUS DRW-24B5ST Adapter: 1 ID: 0
Read mode : SecureUtilize accurate stream : YesDefeat audio cache : YesMake use of C2 pointers : No
Read offset correction : 6Overread into Lead-In and Lead-Out : NoFill up missing offset samples with silence : YesDelete leading and trailing silent blocks : NoNull samples used in CRC calculations : YesUsed interface : Native Win32 interface for Win NT & 2000
Used output format : User Defined EncoderSelected bitrate : 128 kBit/sQuality : HighAdd ID3 tag : NoCommand line compressor : D:\flac-1.3.2-win\win64\flac.exeAdditional command line options : -8 -V -T "ARTIST=%artist%" -T "TITLE=%title%" -T "ALBUM=%albumtitle%" -T "DATE=%year%" -T "TRACKNUMBER=%tracknr%" -T "GENRE=%genre%" -T "COMMENT=ripped by Andy aka yetiisyou" %source%
TOC of the extracted CD
Track | Start | Length | Start sector | End sector --------------------------------------------------------- 1 | 0:00.00 | 5:29.48 | 0 | 24722 2 | 5:29.48 | 4:45.71 | 24723 | 46168 3 | 10:15.44 | 4:20.07 | 46169 | 65675 4 | 14:35.51 | 3:32.55 | 65676 | 81630 5 | 18:08.31 | 5:02.68 | 81631 | 104348 6 | 23:11.24 | 4:22.44 | 104349 | 124042 7 | 27:33.68 | 4:38.01 | 124043 | 144893 8 | 32:11.69 | 4:43.35 | 144894 | 166153 9 | 36:55.29 | 4:21.27 | 166154 | 185755 10 | 41:16.56 | 4:00.00 | 185756 | 203755 11 | 45:16.56 | 4:20.72 | 203756 | 223327 12 | 49:37.53 | 4:07.07 | 223328 | 241859
Range status and errors
Selected range
Filename E:\!Ripped by Andy aka yetiisyou\upStructure - First Morning Together [Shum cd 71] [2007]\upStructure - First Morning Together.wav
Peak level 100.0 % Extraction speed 8.3 X Range quality 100.0 % Test CRC FC2A53F8 Copy CRC FC2A53F8 Copy OK
No errors occurred
AccurateRip summary
Track 1 cannot be verified as accurate (confidence 2) [3FE9D3C9], AccurateRip returned [333D55B4] (AR v2)Track 2 cannot be verified as accurate (confidence 2) [9E63B2C6], AccurateRip returned [156EF207] (AR v2)Track 3 cannot be verified as accurate (confidence 2) [4F214979], AccurateRip returned [4F0AD5E4] (AR v2)Track 4 cannot be verified as accurate (confidence 2) [96D29102], AccurateRip returned [8CDCE2D3] (AR v2)Track 5 cannot be verified as accurate (confidence 2) [EA5C4E67], AccurateRip returned [30AEC1B8] (AR v2)Track 6 cannot be verified as accurate (confidence 2) [4E7EA5A9], AccurateRip returned [148D860E] (AR v2)Track 7 cannot be verified as accurate (confidence 2) [3F560DFC], AccurateRip returned [6E4DB8D2] (AR v2)Track 8 cannot be verified as accurate (confidence 2) [B083F97F], AccurateRip returned [8750A609] (AR v2)Track 9 cannot be verified as accurate (confidence 2) [8DA4DDBA], AccurateRip returned [9A163034] (AR v2)Track 10 cannot be verified as accurate (confidence 2) [F8516A5C], AccurateRip returned [0F06430D] (AR v2)Track 11 cannot be verified as accurate (confidence 2) [40246CFE], AccurateRip returned [CE4F43C7] (AR v2)Track 12 accurately ripped (confidence 1) [8AF57AD0] (AR v1)
1 track(s) accurately ripped11 track(s) could not be verified as accurate
Some tracks could not be verified as accurate
End of status report
---- CUETools DB Plugin V2.1.6
[CTDB TOCID: v99TYmTgRZCJ3x5wkzFzCm86hwU-] disk not present in databaseSubmit result: v99TYmTgRZCJ3x5wkzFzCm86hwU- has been uploaded
==== Log checksum C4B76CE88603423F36D1C5A9B8DC3826EF630C8A1B3C13225D01A952F4C6A57C ====

Содержание индексной карты (.CUE)

REM DATE 2007REM DISCID B60C980CREM COMMENT "ExactAudioCopy v1.3"PERFORMER "upStructure"TITLE "First Morning Together"REM COMPOSER ""FILE "upStructure - First Morning Together.flac" WAVE TRACK 01 AUDIO TITLE "In Dust" PERFORMER "upStructure" REM COMPOSER "" FLAGS DCP INDEX 01 00:00:00 TRACK 02 AUDIO TITLE "First Morning Together" PERFORMER "upStructure" REM COMPOSER "" FLAGS DCP INDEX 00 05:29:47 INDEX 01 05:29:48 TRACK 03 AUDIO TITLE "Menthal Wealth" PERFORMER "upStructure" REM COMPOSER "" FLAGS DCP INDEX 00 10:15:43 INDEX 01 10:15:44 TRACK 04 AUDIO TITLE "Caravan" PERFORMER "upStructure" REM COMPOSER "" FLAGS DCP INDEX 00 14:35:50 INDEX 01 14:35:51 TRACK 05 AUDIO TITLE "Point Of View" PERFORMER "upStructure" REM COMPOSER "" FLAGS DCP INDEX 00 18:08:30 INDEX 01 18:08:31 TRACK 06 AUDIO TITLE "Dolphins Survived" PERFORMER "upStructure" REM COMPOSER "" FLAGS DCP INDEX 00 23:11:23 INDEX 01 23:11:24 TRACK 07 AUDIO TITLE "Once" PERFORMER "upStructure" REM COMPOSER "" FLAGS DCP INDEX 00 27:33:67 INDEX 01 27:33:68 TRACK 08 AUDIO TITLE "In Out" PERFORMER "upStructure" REM COMPOSER "" FLAGS DCP INDEX 00 32:11:68 INDEX 01 32:11:69 TRACK 09 AUDIO TITLE "Upstructures" PERFORMER "upStructure" REM COMPOSER "" FLAGS DCP INDEX 00 36:55:28 INDEX 01 36:55:29 TRACK 10 AUDIO TITLE "Warmer" PERFORMER "upStructure" REM COMPOSER "" FLAGS DCP INDEX 00 41:16:55 INDEX 01 41:16:56 TRACK 11 AUDIO TITLE "PolyGone" PERFORMER "upStructure" REM COMPOSER "" FLAGS DCP INDEX 00 45:16:55 INDEX 01 45:16:56 TRACK 12 AUDIO TITLE "Thundra" PERFORMER "upStructure" REM COMPOSER "" FLAGS DCP INDEX 00 49:37:52 INDEX 01 49:37:53


[torrentc.info]_t_5479622.torrent
Торрент: Зарегистрирован ·  [ 2017-11-15 20:24 ] ·  38c8aba1d419f22eafa6770c36b5c9653473ac74

18 KB

Статус: проверено
Скачан: 0 раз
Размер: 435 MB
Оценка: 
(Голосов: 0)
Сказали спасибо: 0  Спасибо
Похожие темы
[Профиль]    [ЛС]
Показать сообщения:    
Ответить на тему

Текущее время: Сегодня 21:08

Часовой пояс: GMT + 7



Вы не можете начинать темы
Вы не можете отвечать на сообщения
Вы не можете редактировать свои сообщения
Вы не можете удалять свои сообщения
Вы не можете голосовать в опросах
Вы не можете прикреплять файлы к сообщениям
Вы можете скачивать файлы