(Jazzy Hip-Hop) [CD] VA - DJ Tonetrack ‎– Full Under Contact - 2005, FLAC (image+.cue), lossless

Ответить на тему
Статистика раздачи [Обновить пиров]
Размер:  506 MB   |    Зарегистрирован:  1 год   |    Скачан:  0 раз

Полного источника не было: Никогда

 
   
 
 
 
Автор Сообщение

torrentc.info

Создавать темы 13-Ноя-2017 19:31

[Цитировать]

DJ Tonetrack ‎– Full Under Contact
Жанр: Jazzy Hip-Hop
Носитель: CD
Год издания: 2005
Издатель (лейбл): Mediatone
Номер по каталогу: MT-086
Аудиокодек: FLAC (*.flac)
Тип рипа: image+.cue
Битрейт аудио: lossless
Продолжительность: 01:11:35
Источник (релизер): собственный рип
Наличие сканов в содержимом раздачи: да
Треклист:
01. DJ Tonetrack - Intro [1:31]
02. Dilated Peoples - World On Wheels [3:39]
03. Triple Seis - New York New York [2:33]
04. Kool G Rap - First Nigga (Remix) [2:18]
05. Gang Starr - Full Clip [2:41]
06. Mykill Miers Feat. Freddie Foxxx - Wanna Be An MC [3:41]
07. Rahzel - Make The Music 2000 [2:40]
08. E-xecutioners - XL [1:40]
09. DJ Muggs - When Then Pain Inflict [3:14]
10. MosDef & Diverse - Wildin Out (Rmx) [3:29]
11. Planet Asia & 427 - Bringin In Back [3:29]
12. Dilated Peoples - Work The Angels [2:41]
13. 7L & Esoteric - Rest In Peace [3:07]
14. Planet Asia - Golden Age [3:21]
15. Titan Feat. Motion Man - 1-2-3-4 [3:28]
16. Motion Man - Show Up For Practice [2:49]
17. Beatnuts And Big Punisher - Off The Books [2:18]
18. Jurassic 5 - Whats Golden [2:40]
19. Grand Agent - Every Five Minutes [3:53]
20. Jedi Mind Tricks - Heavenly Divine [3:33]
21. Jedi Mind Tricks - Exertions (Remix) [2:31]
22. L.M.N.O. - Radialt [2:24]
23. Roots Manuva - Juggle Tings Proper [4:13]
24. JazzMatazz - The Life Saver [3:40]

Лог создания рипа

Exact Audio Copy V1.3 from 2. September 2016
EAC extraction logfile from 25. August 2017, 20:46
DJ Tonetrack / Full Under Contact
Used drive : ASUS SDRW-08D2S-U Adapter: 9 ID: 1
Read mode : SecureUtilize accurate stream : YesDefeat audio cache : YesMake use of C2 pointers : No
Read offset correction : 6Overread into Lead-In and Lead-Out : NoFill up missing offset samples with silence : YesDelete leading and trailing silent blocks : NoNull samples used in CRC calculations : YesUsed interface : Installed external ASPI interface
Used output format : User Defined EncoderSelected bitrate : 128 kBit/sQuality : HighAdd ID3 tag : NoCommand line compressor : D:\flac-1.3.2-win\win64\flac.exeAdditional command line options : -V -8 -T "Date=%year%" -T "COMMENT=ripped by Andy aka yetiisyou" -T "Genre=%genre%" %source%
TOC of the extracted CD
Track | Start | Length | Start sector | End sector --------------------------------------------------------- 1 | 0:00.00 | 1:31.11 | 0 | 6835 2 | 1:31.11 | 3:39.32 | 6836 | 23292 3 | 5:10.43 | 2:33.36 | 23293 | 34803 4 | 7:44.04 | 2:18.16 | 34804 | 45169 5 | 10:02.20 | 2:41.08 | 45170 | 57252 6 | 12:43.28 | 3:40.62 | 57253 | 73814 7 | 16:24.15 | 2:40.12 | 73815 | 85826 8 | 19:04.27 | 1:40.35 | 85827 | 93361 9 | 20:44.62 | 3:13.50 | 93362 | 107886 10 | 23:58.37 | 3:28.70 | 107887 | 123556 11 | 27:27.32 | 3:28.68 | 123557 | 139224 12 | 30:56.25 | 2:41.18 | 139225 | 151317 13 | 33:37.43 | 3:06.61 | 151318 | 165328 14 | 36:44.29 | 3:20.66 | 165329 | 180394 15 | 40:05.20 | 3:27.74 | 180395 | 195993 16 | 43:33.19 | 2:48.39 | 195994 | 208632 17 | 46:21.58 | 2:18.07 | 208633 | 218989 18 | 48:39.65 | 2:40.09 | 218990 | 230998 19 | 51:19.74 | 3:52.68 | 230999 | 248466 20 | 55:12.67 | 3:33.31 | 248467 | 264472 21 | 58:46.23 | 2:30.63 | 264473 | 275785 22 | 61:17.11 | 2:24.34 | 275786 | 286619 23 | 63:41.45 | 4:12.46 | 286620 | 305565 24 | 67:54.16 | 3:40.34 | 305566 | 322099
Range status and errors
Selected range
Filename E:\!Ripped by Andy aka yetiisyou\VA - DJ Tonetrack - Full Under Contact [MT-086] [2005]\DJ Tonetrack - Full Under Contact.wav
Peak level 100.0 % Extraction speed 5.1 X Range quality 100.0 % Test CRC 74E9F9FF Copy CRC 74E9F9FF Copy OK
No errors occurred
AccurateRip summary
Track 1 accurately ripped (confidence 1) [A2B9EC3C] (AR v1)Track 2 accurately ripped (confidence 1) [75A6092B] (AR v1)Track 3 accurately ripped (confidence 1) [7DF2019A] (AR v1)Track 4 accurately ripped (confidence 1) [FA8AF631] (AR v1)Track 5 accurately ripped (confidence 1) [720B1F6C] (AR v1)Track 6 accurately ripped (confidence 1) [31EC8995] (AR v1)Track 7 accurately ripped (confidence 1) [351A33B9] (AR v1)Track 8 accurately ripped (confidence 1) [774E38BB] (AR v1)Track 9 accurately ripped (confidence 1) [D70056FF] (AR v1)Track 10 accurately ripped (confidence 1) [2CDF7014] (AR v1)Track 11 accurately ripped (confidence 1) [32801584] (AR v1)Track 12 accurately ripped (confidence 1) [039ADC66] (AR v1)Track 13 accurately ripped (confidence 1) [A0B139A4] (AR v1)Track 14 accurately ripped (confidence 1) [FD19D293] (AR v1)Track 15 accurately ripped (confidence 1) [A35515DF] (AR v1)Track 16 accurately ripped (confidence 1) [5D99E876] (AR v1)Track 17 accurately ripped (confidence 1) [77457A79] (AR v1)Track 18 accurately ripped (confidence 1) [B8183A89] (AR v1)Track 19 accurately ripped (confidence 1) [CFC3AD28] (AR v1)Track 20 accurately ripped (confidence 1) [F7A482FA] (AR v1)Track 21 accurately ripped (confidence 1) [71EF7627] (AR v1)Track 22 accurately ripped (confidence 1) [1E187307] (AR v1)Track 23 accurately ripped (confidence 1) [E22AFA8F] (AR v1)Track 24 accurately ripped (confidence 1) [A0F01F32] (AR v1)
All tracks accurately ripped
End of status report
==== Log checksum 00686FFB9BF1B740656461832DD9EB55940B961DE3D631FB722821741842A2E3 ====

Содержание индексной карты (.CUE)

REM DATE 2004REM DISCID 5A10C618REM COMMENT "ExactAudioCopy v1.3"PERFORMER "DJ Tonetrack"TITLE "Full Under Contact"REM COMPOSER ""FILE "DJ Tonetrack - Full Under Contact.flac" WAVE TRACK 01 AUDIO TITLE "Intro" PERFORMER "DJ Tonetrack" REM COMPOSER "" FLAGS DCP INDEX 01 00:00:00 TRACK 02 AUDIO TITLE "World On Wheels" PERFORMER "Dilated Peoples" REM COMPOSER "" FLAGS DCP INDEX 01 01:31:11 TRACK 03 AUDIO TITLE "New York New York" PERFORMER "Triple Seis" REM COMPOSER "" FLAGS DCP INDEX 01 05:10:43 TRACK 04 AUDIO TITLE "First Nigga (Remix)" PERFORMER "Kool G Rap" REM COMPOSER "" FLAGS DCP INDEX 01 07:44:04 TRACK 05 AUDIO TITLE "Full Clip" PERFORMER "Gang Starr" REM COMPOSER "" FLAGS DCP INDEX 01 10:02:20 TRACK 06 AUDIO TITLE "Wanna Be An MC" PERFORMER "Mykill Miers Feat. Freddie Foxxx" REM COMPOSER "" FLAGS DCP INDEX 01 12:43:28 TRACK 07 AUDIO TITLE "Make The Music 2000" PERFORMER "Rahzel" REM COMPOSER "" FLAGS DCP INDEX 01 16:24:15 TRACK 08 AUDIO TITLE "XL" PERFORMER "E-xecutioners" REM COMPOSER "" FLAGS DCP INDEX 01 19:04:27 TRACK 09 AUDIO TITLE "When Then Pain Inflict" PERFORMER "DJ Muggs" REM COMPOSER "" FLAGS DCP INDEX 01 20:44:62 TRACK 10 AUDIO TITLE "Wildin Out (Rmx)" PERFORMER "MosDef & Diverse" REM COMPOSER "" FLAGS DCP INDEX 01 23:58:37 TRACK 11 AUDIO TITLE "Bringin In Back" PERFORMER "Planet Asia & 427" REM COMPOSER "" FLAGS DCP INDEX 01 27:27:32 TRACK 12 AUDIO TITLE "Work The Angels" PERFORMER "Dilated Peoples" REM COMPOSER "" FLAGS DCP INDEX 01 30:56:25 TRACK 13 AUDIO TITLE "Rest In Peace" PERFORMER "7L & Esoteric" REM COMPOSER "" FLAGS DCP INDEX 01 33:37:43 TRACK 14 AUDIO TITLE "Golden Age" PERFORMER "Planet Asia" REM COMPOSER "" FLAGS DCP INDEX 01 36:44:29 TRACK 15 AUDIO TITLE "1-2-3-4" PERFORMER "Titan Feat. Motion Man" REM COMPOSER "" FLAGS DCP INDEX 01 40:05:20 TRACK 16 AUDIO TITLE "Show Up For Practice" PERFORMER "Motion Man" REM COMPOSER "" FLAGS DCP INDEX 01 43:33:19 TRACK 17 AUDIO TITLE "Off The Books" PERFORMER "Beatnuts And Big Punisher" REM COMPOSER "" FLAGS DCP INDEX 01 46:21:58 TRACK 18 AUDIO TITLE "Whats Golden" PERFORMER "Jurassic 5" REM COMPOSER "" FLAGS DCP INDEX 01 48:39:65 TRACK 19 AUDIO TITLE "Every Five Minutes" PERFORMER "Grand Agent" REM COMPOSER "" FLAGS DCP INDEX 01 51:19:74 TRACK 20 AUDIO TITLE "Heavenly Divine" PERFORMER "Jedi Mind Tricks" REM COMPOSER "" FLAGS DCP INDEX 01 55:12:67 TRACK 21 AUDIO TITLE "Exertions (Remix)" PERFORMER "Jedi Mind Tricks" REM COMPOSER "" FLAGS DCP INDEX 01 58:46:23 TRACK 22 AUDIO TITLE "Radialt" PERFORMER "L.M.N.O. " REM COMPOSER "" FLAGS DCP INDEX 01 61:17:11 TRACK 23 AUDIO TITLE "Juggle Tings Proper" PERFORMER "Roots Manuva" REM COMPOSER "" FLAGS DCP INDEX 01 63:41:45 TRACK 24 AUDIO TITLE "The Life Saver" PERFORMER "JazzMatazz" REM COMPOSER "" FLAGS DCP INDEX 01 67:54:16


[torrentc.info]_t_5479204.torrent
Торрент: Зарегистрирован ·  [ 2017-11-13 19:30 ] ·  11ba76e2f0ad373052772f6a5bdf8c8c5c7965db

21 KB

Статус: проверено
Скачан: 0 раз
Размер: 506 MB
Оценка: 
(Голосов: 0)
Сказали спасибо: 0  Спасибо
Похожие темы
[Профиль]    [ЛС]
Показать сообщения:    
Ответить на тему

Текущее время: Сегодня 05:21

Часовой пояс: GMT + 7



Вы не можете начинать темы
Вы не можете отвечать на сообщения
Вы не можете редактировать свои сообщения
Вы не можете удалять свои сообщения
Вы не можете голосовать в опросах
Вы не можете прикреплять файлы к сообщениям
Вы можете скачивать файлы