С вами опасно иметь дело... (Ирина Барковская) [1998, Украина, старомодная комедия, экранизация, SATRip] Киевский Государственный академический русский драматический театр им. Леси Украинки

Ответить на тему
Статистика раздачи [Обновить пиров]
Размер:  1.09 GB   |    Зарегистрирован:  10 месяцев 9 дней   |    Скачан:  0 раз

Полного источника не было: Никогда

 
   
 
 
 
Автор Сообщение

torrentc.info

Создавать темы 11-Ноя-2017 23:43

[Цитировать]

С вами опасно иметь дело... Название театра: Национальный академический русской драмы им. Леси Украинки.
Год выхода: 1998.
Страна: Украина .
Жанр: старомодная комедия, экранизация.
Продолжительность: 01:33:39.
Язык: Русский.
Режиссёры: Ирина Барковская, заслуженный деятель искусств России Константин Антропов.
Действующие лица и исполнители:
Лидия Васильевна - народная артистка Украинской ССР Валерия Заклунная,
Родион Николаевич - народный артист СССР Юрий Мажуга.
О спектакле:
Телеспектакль по пьесе Алексея Арбузова «Старомодная комедия».
В основе фильма спектакль театра русской драмы им. Л. Украинки в Киеве. Видеосъемка спектакля происходила на сцене Государственного академического Малого театра России в 1998 году.
Встреча главврача санатория и его пациентки заканчивается конфликтом. Он вызывает её к себе по поводу нарушения санитарного режима, однако пациентка оказывается с характером, который понравился доктору. Вскоре их отношения налаживаются, и он приглашает её в ресторан. История заканчивается тем, что дама решает уехать, но понимает, что не в силах этого сделать.

Дополнительная информация:
Выпущено: Национальный академический русской драмы им. Леси Украинки, Студия архивных и фондовых программ телеканала "Культура".
Режиссер-постановщик спектакля: Ирина Барковская.
Автор: Алексей Арбузов.
Художник-постановщик: Станислав Петровский.
Музыкальное оформление: Андрей Линецкий.
Стихи: Белла Ахмадулина.
Балетмейстер: заслуженная артистка Украины Алла Рубина.
Режиссер телеверсии: заслуженный деятель искусств России Константин Антропов.
Операторы: Юрий Назаров, Юрий Журавлёв.



Рип sharky.

Качество видео:...SATRip
Формат файла:.................AVI
Видео:..704x528 (1.33:1), 25 fps, XviD build 47 ~1464 kbps avg, 0.16 bit/pixel
Аудио:..48 kHz, AC3 Dolby Digital, 2/0 (L,R) ch, ~192 kbps

Отчет MediaInfo

General
Complete name : S.vami.opasno.imet'.delo.NATRD.im.Lesi.Ukrainki.1998.XviD.WEB-DLRip.fenixclub.avi
Format : AVI
Format/Info : Audio Video Interleave
File size : 1.09 GiB
Duration : 1h 33mn
Overall bit rate : 1 667 Kbps
Writing application : VirtualDubMod 1.5.10.2 (build 2540/release)
Writing library : VirtualDubMod build 2540/release
Video
ID : 0
Format : MPEG-4 Visual
Format profile : Advanced Simple@L5
Format settings, BVOP : 1
Format settings, QPel : No
Format settings, GMC : No warppoints
Format settings, Matrix : Default (H.263)
Codec ID : XVID
Codec ID/Hint : XviD
Duration : 1h 33mn
Bit rate : 1 465 Kbps
Width : 704 pixels
Height : 528 pixels
Display aspect ratio : 4:3
Frame rate : 25.000 fps
Color space : YUV
Chroma subsampling : 4:2:0
Bit depth : 8 bits
Scan type : Progressive
Compression mode : Lossy
Bits/(Pixel*Frame) : 0.158
Stream size : 981 MiB (88%)
Writing library : XviD 1.2.0.dev47 (UTC 2006-11-01)
Audio
ID : 1
Format : AC-3
Format/Info : Audio Coding 3
Mode extension : CM (complete main)
Format settings, Endianness : Big
Codec ID : 2000
Duration : 1h 33mn
Bit rate mode : Constant
Bit rate : 192 Kbps
Channel(s) : 2 channels
Channel positions : Front: L R
Sampling rate : 48.0 KHz
Frame rate : 31.250 fps (1536 spf)
Compression mode : Lossy
Stream size : 129 MiB (12%)
Alignment : Split accross interleaves
Interleave, duration : 40 ms (1.00 video frame)
Interleave, preload duratio : 500 ms.

Скриншоты



[torrentc.info]_t_5476052.torrent
Торрент: Зарегистрирован ·  [ 2017-11-11 23:42 ] ·  3d3e58e09eb6a1641ec47f46c97707648ec19d41

11 KB

Статус: проверено
Скачан: 0 раз
Размер: 1.09 GB
Оценка: 
(Голосов: 0)
Сказали спасибо: 0  Спасибо
Похожие темы
[Профиль]    [ЛС]
Показать сообщения:    
Ответить на тему

Текущее время: Сегодня 07:14

Часовой пояс: GMT + 7



Вы не можете начинать темы
Вы не можете отвечать на сообщения
Вы не можете редактировать свои сообщения
Вы не можете удалять свои сообщения
Вы не можете голосовать в опросах
Вы не можете прикреплять файлы к сообщениям
Вы можете скачивать файлы