Практикантка / L\'allieva (Лука Рибуоли / Luca Ribuoli) / Сезон: 1 / Серии: 1-10 (11) [2016, Италия, комедия, детектив, TVRip-AVC] Sub Rus (olya vou, ladySpais) + Original Ita

Ответить на тему
Статистика раздачи [Обновить пиров]
Размер:  4.96 GB   |    Зарегистрирован:  11 месяцев 9 дней   |    Скачан:  2 раза

Полного источника не было: 1 день 1 час

 
   
 
 
 
Автор Сообщение

torrentc.info

Создавать темы 11-Ноя-2017 23:42

[Цитировать]

Практикантка / L'allieva
Страна: Италия
Жанр: комедия, детектив
Год выхода: 2016
Продолжительность: 1 х 01:40:00 и 10 x ~00:50:00
Перевод: субтитры (olya_vou, ladySpais)
Субтитры: русские, неотключаемые
Оригинальная аудиодорожка: итальянский
Режиссер: Лука Рибуоли / Luca Ribuoli
В ролях: Алессандра Мастронарди (Alessandra Mastronardi), Лино Гуанчале (Lino Guanciale), Дарио Айта (Dario Aita), Микеле Ди Мауро (Michele Di Mauro), Франческа Агостини (Francesca Agostini), Пьерпаоло Споллон (Pierpaolo Spollon), Дзюн Итикава (Jun Ichikawa), Кьяра Масталли (Chiara Mastalli), Мартина Стелла (Martina Stella), Рэй Лавлок (Ray Lovelock), Эммануэле Айта (Emmanuele Aita), Франческо Прокопио (Francesco Procopio), Фабрицио Канильо (Fabrizio Coniglio), Марция Убалди (Marzia Ubaldi) и др.
Описание: Аличе Аллеви - студентка последнего курса медицинского университета, которая на пороге выпускных экзаменов осознала, что совсем не хочет быть врачом. И только происшествие, случившееся в её семье, стало своего рода ответом на вопрос - что же делать дальше, какой путь избрать? Судебная медицина! Попадая в массу курьёзных ситуаций, нарушая субординацию и дисциплину, Аличе с каждым днём всё больше убеждается в правильности своего выбора и помогает инспектору Каллигарису и его незаменимому помощнику, агенту Визоне, раскрывать преступления. Но если с профессией всё прояснилось, то в личной жизни возникла не менее важная дилемма - кого же выбрать?
Песня из начальных титров
Сэмпл
[url=tracker.php?nm=l%27allieva]Ссылка на предыдущие и альтернативные раздачи[/url]
Реклама отсутствует
Качество видео: TVRip
Формат файла: MP4
Видео: AVC1, 1024x576, 25.000 fps, 1173 Kbps
Аудио: AAC, 44,1 KHz, 2 ch, 88,3 Kbps
!!Внимание! Раздача ведётся путём добавления новых серий. Графика выхода серий нет!

Список серий

1. В ожидании озарения / Sindrome da cuore in sospeso
2. Практикантка / L'allieva
3. Секреты на поверхности / Segreti a fior di pelle
4. Прыгающее сердце / Un tuffo al cuore
5. Красива навсегда / Per sempre bella
6. Африканский рог / Corno d'Africa
7. Последний бег трусцой / L'ultimo jogging
8. Сердце пополам / Un cuore a metà
9. Кости / Ossa
10. Тайное всегда становится явным / Un segreto non è per sempre
11. То, что я не знаю о тебе / Quello che non so di te

MediaInfo

Общее
Полное имя : G:\Download\L'Allieva\L'allieva_S01E01.mp4
Формат файла : MPEG-4
Профиль формата : Base Media
Идентификатор кодека : isom
Размер файла : 748 Мбайт
Продолжительность : 1 ч. 41 м.
Режим общего битрейта : Переменный
Общий поток : 1035 Кбит/сек
Дата кодирования : UTC 2017-02-03 14:15:02
Дата пометки : UTC 2017-02-03 14:15:02
Видео
Идентификатор : 1
Формат файла : AVC
Формат файла/Информация : Advanced Video Codec
Профиль формата : High@L3.1
Параметр CABAC формата : Да
Параметр ReFrames формата : 4 кадра
Идентификатор кодека : avc1
Идентификатор кодека/Информация : Advanced Video Coding
Продолжительность : 1 ч. 41 м.
Битрейт : 914 Кбит/сек
Максимальный битрейт : 5080 Кбит/сек
Ширина : 1024 пикселя
Высота : 576 пикселей
Соотношение сторон : 16:9
Режим частоты кадров : Постоянный
Частота кадров : 25,000 кадров/сек
Цветовое пространство : YUV
Субдискретизация насыщенности : 4:2:0
Битовая глубина : 8 бит
Тип развёртки : Прогрессивная
Бит/(Пиксели*Кадры) : 0.062
Размер потока : 661 Мбайт (88%)
Библиотека кодирования : x264 core 130 r2273 b3065e6
Настройки программы : cabac=1 / ref=3 / deblock=1:0:0 / analyse=0x3:0x113 / me=hex / subme=7 / psy=1 / psy_rd=1.00:0.00 / mixed_ref=1 / me_range=16 / chroma_me=1 / trellis=1 / 8x8dct=1 / cqm=0 / deadzone=21,11 / fast_pskip=1 / chroma_qp_offset=-2 / threads=1 / lookahead_threads=1 / sliced_threads=0 / nr=0 / decimate=1 / interlaced=0 / bluray_compat=0 / constrained_intra=0 / bframes=3 / b_pyramid=2 / b_adapt=1 / b_bias=0 / direct=1 / weightb=1 / open_gop=0 / weightp=2 / keyint=250 / keyint_min=25 / scenecut=40 / intra_refresh=0 / rc_lookahead=40 / rc=crf / mbtree=1 / crf=23.0 / qcomp=0.60 / qpmin=0 / qpmax=69 / qpstep=4 / ip_ratio=1.40 / aq=1:1.00
Дата кодирования : UTC 2017-02-03 14:15:02
Дата пометки : UTC 2017-02-03 14:15:56
Аудио
Идентификатор : 2
Формат файла : AAC
Формат файла/Информация : Advanced Audio Codec
Профиль формата : LC
Идентификатор кодека : 40
Продолжительность : 1 ч. 41 м.
Вид битрейта : Переменный
Битрейт : 117 Кбит/сек
Максимальный битрейт : 134 Кбит/сек
Каналы : 2 канала
Расположение каналов : Front: L R
Частота : 44,1 КГц
Метод сжатия : С потерями
Размер потока : 84,6 Мбайт (11%)
Дата кодирования : UTC 2017-02-03 14:15:51
Дата пометки : UTC 2017-02-03 14:15:56
Общее
Полное имя : G:\Download\L'Allieva\L'allieva_S01E02.mp4
Формат файла : MPEG-4
Профиль формата : Base Media
Идентификатор кодека : isom
Размер файла : 478 Мбайт
Продолжительность : 59 м.
Режим общего битрейта : Переменный
Общий поток : 1130 Кбит/сек
Дата кодирования : UTC 2017-02-03 21:39:56
Дата пометки : UTC 2017-02-03 21:39:56
Видео
Идентификатор : 1
Формат файла : AVC
Формат файла/Информация : Advanced Video Codec
Профиль формата : High@L3.1
Параметр CABAC формата : Да
Параметр ReFrames формата : 4 кадра
Идентификатор кодека : avc1
Идентификатор кодека/Информация : Advanced Video Coding
Продолжительность : 59 м.
Битрейт : 1008 Кбит/сек
Максимальный битрейт : 4495 Кбит/сек
Ширина : 1024 пикселя
Высота : 576 пикселей
Соотношение сторон : 16:9
Режим частоты кадров : Постоянный
Частота кадров : 25,000 кадров/сек
Цветовое пространство : YUV
Субдискретизация насыщенности : 4:2:0
Битовая глубина : 8 бит
Тип развёртки : Прогрессивная
Бит/(Пиксели*Кадры) : 0.068
Размер потока : 426 Мбайт (89%)
Библиотека кодирования : x264 core 130 r2273 b3065e6
Настройки программы : cabac=1 / ref=3 / deblock=1:0:0 / analyse=0x3:0x113 / me=hex / subme=7 / psy=1 / psy_rd=1.00:0.00 / mixed_ref=1 / me_range=16 / chroma_me=1 / trellis=1 / 8x8dct=1 / cqm=0 / deadzone=21,11 / fast_pskip=1 / chroma_qp_offset=-2 / threads=1 / lookahead_threads=1 / sliced_threads=0 / nr=0 / decimate=1 / interlaced=0 / bluray_compat=0 / constrained_intra=0 / bframes=3 / b_pyramid=2 / b_adapt=1 / b_bias=0 / direct=1 / weightb=1 / open_gop=0 / weightp=2 / keyint=250 / keyint_min=25 / scenecut=40 / intra_refresh=0 / rc_lookahead=40 / rc=crf / mbtree=1 / crf=23.0 / qcomp=0.60 / qpmin=0 / qpmax=69 / qpstep=4 / ip_ratio=1.40 / aq=1:1.00
Дата кодирования : UTC 2017-02-03 21:39:56
Дата пометки : UTC 2017-02-03 21:40:27
Аудио
Идентификатор : 2
Формат файла : AAC
Формат файла/Информация : Advanced Audio Codec
Профиль формата : LC
Идентификатор кодека : 40
Продолжительность : 59 м.
Вид битрейта : Переменный
Битрейт : 118 Кбит/сек
Максимальный битрейт : 135 Кбит/сек
Каналы : 2 канала
Расположение каналов : Front: L R
Частота : 44,1 КГц
Метод сжатия : С потерями
Размер потока : 50,1 Мбайт (10%)
Дата кодирования : UTC 2017-02-03 21:40:24
Дата пометки : UTC 2017-02-03 21:40:27
Общее
Полное имя : G:\Download\L'Allieva\L'allieva_S01E03.mp4
Формат файла : MPEG-4
Профиль формата : Base Media
Идентификатор кодека : isom
Размер файла : 473 Мбайт
Продолжительность : 1 ч. 0 м.
Режим общего битрейта : Переменный
Общий поток : 1092 Кбит/сек
Дата кодирования : UTC 2017-03-07 09:05:05
Дата пометки : UTC 2017-03-07 09:05:05
Видео
Идентификатор : 1
Формат файла : AVC
Формат файла/Информация : Advanced Video Codec
Профиль формата : High@L3.1
Параметр CABAC формата : Да
Параметр ReFrames формата : 4 кадра
Идентификатор кодека : avc1
Идентификатор кодека/Информация : Advanced Video Coding
Продолжительность : 1 ч. 0 м.
Битрейт : 969 Кбит/сек
Максимальный битрейт : 3017 Кбит/сек
Ширина : 1024 пикселя
Высота : 576 пикселей
Соотношение сторон : 16:9
Режим частоты кадров : Постоянный
Частота кадров : 25,000 кадров/сек
Цветовое пространство : YUV
Субдискретизация насыщенности : 4:2:0
Битовая глубина : 8 бит
Тип развёртки : Прогрессивная
Бит/(Пиксели*Кадры) : 0.066
Размер потока : 420 Мбайт (89%)
Библиотека кодирования : x264 core 130 r2273 b3065e6
Настройки программы : cabac=1 / ref=3 / deblock=1:0:0 / analyse=0x3:0x113 / me=hex / subme=7 / psy=1 / psy_rd=1.00:0.00 / mixed_ref=1 / me_range=16 / chroma_me=1 / trellis=1 / 8x8dct=1 / cqm=0 / deadzone=21,11 / fast_pskip=1 / chroma_qp_offset=-2 / threads=1 / lookahead_threads=1 / sliced_threads=0 / nr=0 / decimate=1 / interlaced=0 / bluray_compat=0 / constrained_intra=0 / bframes=3 / b_pyramid=2 / b_adapt=1 / b_bias=0 / direct=1 / weightb=1 / open_gop=0 / weightp=2 / keyint=250 / keyint_min=25 / scenecut=40 / intra_refresh=0 / rc_lookahead=40 / rc=crf / mbtree=1 / crf=23.0 / qcomp=0.60 / qpmin=0 / qpmax=69 / qpstep=4 / ip_ratio=1.40 / aq=1:1.00
Дата кодирования : UTC 2017-03-07 09:05:05
Дата пометки : UTC 2017-03-07 09:05:29
Аудио
Идентификатор : 2
Формат файла : AAC
Формат файла/Информация : Advanced Audio Codec
Профиль формата : LC
Идентификатор кодека : 40
Продолжительность : 1 ч. 0 м.
Вид битрейта : Переменный
Битрейт : 118 Кбит/сек
Максимальный битрейт : 147 Кбит/сек
Каналы : 2 канала
Расположение каналов : Front: L R
Частота : 44,1 КГц
Метод сжатия : С потерями
Размер потока : 51,3 Мбайт (11%)
Дата кодирования : UTC 2017-03-07 09:05:25
Дата пометки : UTC 2017-03-07 09:05:29
Общее
Полное имя : G:\Download\L'Allieva\L'allieva_S01E04.mp4
Формат файла : MPEG-4
Профиль формата : Base Media
Идентификатор кодека : isom
Размер файла : 465 Мбайт
Продолжительность : 53 м.
Режим общего битрейта : Переменный
Общий поток : 1204 Кбит/сек
Дата кодирования : UTC 2017-03-06 23:34:21
Дата пометки : UTC 2017-03-06 23:34:21
Видео
Идентификатор : 1
Формат файла : AVC
Формат файла/Информация : Advanced Video Codec
Профиль формата : High@L3.1
Параметр CABAC формата : Да
Параметр ReFrames формата : 4 кадра
Идентификатор кодека : avc1
Идентификатор кодека/Информация : Advanced Video Coding
Продолжительность : 53 м.
Битрейт : 1082 Кбит/сек
Максимальный битрейт : 5187 Кбит/сек
Ширина : 1024 пикселя
Высота : 576 пикселей
Соотношение сторон : 16:9
Режим частоты кадров : Постоянный
Частота кадров : 25,000 кадров/сек
Цветовое пространство : YUV
Субдискретизация насыщенности : 4:2:0
Битовая глубина : 8 бит
Тип развёртки : Прогрессивная
Бит/(Пиксели*Кадры) : 0.073
Размер потока : 417 Мбайт (90%)
Библиотека кодирования : x264 core 130 r2273 b3065e6
Настройки программы : cabac=1 / ref=3 / deblock=1:0:0 / analyse=0x3:0x113 / me=hex / subme=7 / psy=1 / psy_rd=1.00:0.00 / mixed_ref=1 / me_range=16 / chroma_me=1 / trellis=1 / 8x8dct=1 / cqm=0 / deadzone=21,11 / fast_pskip=1 / chroma_qp_offset=-2 / threads=1 / lookahead_threads=1 / sliced_threads=0 / nr=0 / decimate=1 / interlaced=0 / bluray_compat=0 / constrained_intra=0 / bframes=3 / b_pyramid=2 / b_adapt=1 / b_bias=0 / direct=1 / weightb=1 / open_gop=0 / weightp=2 / keyint=250 / keyint_min=25 / scenecut=40 / intra_refresh=0 / rc_lookahead=40 / rc=crf / mbtree=1 / crf=23.0 / qcomp=0.60 / qpmin=0 / qpmax=69 / qpstep=4 / ip_ratio=1.40 / aq=1:1.00
Дата кодирования : UTC 2017-03-06 23:34:21
Дата пометки : UTC 2017-03-06 23:34:41
Аудио
Идентификатор : 2
Формат файла : AAC
Формат файла/Информация : Advanced Audio Codec
Профиль формата : LC
Идентификатор кодека : 40
Продолжительность : 53 м.
Вид битрейта : Переменный
Битрейт : 118 Кбит/сек
Максимальный битрейт : 136 Кбит/сек
Каналы : 2 канала
Расположение каналов : Front: L R
Частота : 44,1 КГц
Метод сжатия : С потерями
Размер потока : 45,6 Мбайт (10%)
Дата кодирования : UTC 2017-03-06 23:34:38
Дата пометки : UTC 2017-03-06 23:34:41


[torrentc.info]_t_5322516.torrent
Торрент: Зарегистрирован ·  [ 2017-11-11 23:42 ] ·  b37c458b4ed2e900b5e3c2992e5f6fb3aa169974

13 KB

Статус: проверено
Скачан: 2 раз
Размер: 4.96 GB
Оценка: 
(Голосов: 0)
Сказали спасибо: 0  Спасибо
Похожие темы
[Профиль]    [ЛС]

torrentc.info

Создавать темы 17-Май-2018 01:01 (спустя 6 месяцев 5 дней)

[Цитировать]

Замечательный сериал, посмотрела с огромным удовольствием. Спасибо за раздачу. Если можно, добавьте, пожалуйста, 11-ю серию.
[Профиль]    [ЛС]
Показать сообщения:    
Ответить на тему

Текущее время: Сегодня 01:17

Часовой пояс: GMT + 7



Вы не можете начинать темы
Вы не можете отвечать на сообщения
Вы не можете редактировать свои сообщения
Вы не можете удалять свои сообщения
Вы не можете голосовать в опросах
Вы не можете прикреплять файлы к сообщениям
Вы можете скачивать файлы