(Ethereal, Ambient, Darkwave) [CD] Chandeen - Blood Red Skies - 2011, FLAC (tracks+.cue) lossless

Ответить на тему
Статистика раздачи [Обновить пиров]
Размер:  361 MB   |    Зарегистрирован:  7 месяцев 14 дней   |    Скачан:  0 раз

Полного источника не было: Никогда

Личеров:  1  [  0 KB/s  ]   Подробная статистика скачивающих
 
   
 
 
 
Автор Сообщение

torrentc.info

Создавать темы 08-Ноя-2017 23:46

[Цитировать]

Chandeen / Blood Red Skies
Жанр: Ethereal, Ambient, Darkwave
Носитель: CD
Год издания: 2011
Издатель (лейбл): Kalinkaland Records
Страна исполнителя (группы): Germany
Аудиокодек: FLAC (*.flac)
Тип рипа: tracks+.cue
Битрейт аудио: lossless
Продолжительность: 54:26
Источник (релизер): Интернет
Наличие сканов в содержимом раздачи: да
Треклист:
1. Stars Can Frighten
2. Shadows Fade
3. Farewell To Love
4. Blood Red Skies
5. Kiji
6. Air
7. Rabbit, Run
8. World In Between I
9. Citylights
10. The Longing
11. New Morning II
12. Sunset Serenade
13. Floating To The Stars III
14. Until The Dawn

Лог создания рипа

Exact Audio Copy V1.0 beta 3 from 29. August 2011
EAC extraction logfile from 19. September 2012, 11:39
Chandeen / Blood Red Skies
Used drive : HL-DT-STCD-RW GCE-8520B Adapter: 0 ID: 0
Read mode : SecureUtilize accurate stream : YesDefeat audio cache : YesMake use of C2 pointers : No
Read offset correction : 6Overread into Lead-In and Lead-Out : NoFill up missing offset samples with silence : YesDelete leading and trailing silent blocks : NoNull samples used in CRC calculations : YesUsed interface : Native Win32 interface for Win NT & 2000Gap handling : Appended to previous track
Used output format : User Defined EncoderSelected bitrate : 1024 kBit/sQuality : HighAdd ID3 tag : NoCommand line compressor : C:\Program Files\Exact Audio Copy\Flac\flac.exeAdditional command line options : -8 -V -T "ARTIST=%artist%" -T "TITLE=%title%" -T "ALBUM=%albumtitle%" -T "DATE=%year%" -T "TRACKNUMBER=%tracknr%" -T "GENRE=%genre%" -T "PERFORMER=%albuminterpret%" -T "COMPOSER=%composer%" %haslyrics%--tag-from-file=LYRICS="%lyricsfile%"%haslyrics% -T "ALBUMARTIST=%albumartist%" -T "DISCNUMBER=%cdnumber%" -T "TOTALDISCS=%totalcds%" -T "TOTALTRACKS=%numtracks%" -T "COMMENT=%comment%" %source% -o %dest%
TOC of the extracted CD
Track | Start | Length | Start sector | End sector --------------------------------------------------------- 1 | 0:00.00 | 3:46.15 | 0 | 16964 2 | 3:46.15 | 4:29.63 | 16965 | 37202 3 | 8:16.03 | 5:18.39 | 37203 | 61091 4 | 13:34.42 | 4:06.40 | 61092 | 79581 5 | 17:41.07 | 4:33.58 | 79582 | 100114 6 | 22:14.65 | 5:12.67 | 100115 | 123581 7 | 27:27.57 | 3:38.64 | 123582 | 139995 8 | 31:06.46 | 1:38.59 | 139996 | 147404 9 | 32:45.30 | 4:05.58 | 147405 | 165837 10 | 36:51.13 | 4:15.40 | 165838 | 185002 11 | 41:06.53 | 2:53.34 | 185003 | 198011 12 | 44:00.12 | 3:55.66 | 198012 | 215702 13 | 47:56.03 | 5:22.53 | 215703 | 239905 14 | 53:18.56 | 1:08.16 | 239906 | 245021
Track 1
Filename Z:\EAC Rips\Chandeen (2011) - Blood Red Skies [flac]\01 - Stars Can Frighten.wav
Pre-gap length 0:00:02.00
Peak level 68.8 % Extraction speed 4.5 X Track quality 100.0 % Test CRC 6F1F02D1 Copy CRC 6F1F02D1 Accurately ripped (confidence 1) [F8E4B4C6] (AR v2) Copy OK
Track 2
Filename Z:\EAC Rips\Chandeen (2011) - Blood Red Skies [flac]\02 - Shadows Fade.wav
Peak level 97.9 % Extraction speed 5.1 X Track quality 100.0 % Test CRC A06D0A7F Copy CRC A06D0A7F Accurately ripped (confidence 1) [669418D7] (AR v2) Copy OK
Track 3
Filename Z:\EAC Rips\Chandeen (2011) - Blood Red Skies [flac]\03 - Farewall To Love.wav
Peak level 99.1 % Extraction speed 5.8 X Track quality 100.0 % Test CRC F1151345 Copy CRC F1151345 Accurately ripped (confidence 1) [C91B4D17] (AR v2) Copy OK
Track 4
Filename Z:\EAC Rips\Chandeen (2011) - Blood Red Skies [flac]\04 - Blood Red Skies.wav
Peak level 100.0 % Extraction speed 6.1 X Track quality 100.0 % Test CRC 7DC3012A Copy CRC 7DC3012A Accurately ripped (confidence 1) [D693FDFE] (AR v2) Copy OK
Track 5
Filename Z:\EAC Rips\Chandeen (2011) - Blood Red Skies [flac]\05 - Kiji.wav
Peak level 98.0 % Extraction speed 6.6 X Track quality 100.0 % Test CRC 0286FD93 Copy CRC 0286FD93 Accurately ripped (confidence 1) [B38247AB] (AR v2) Copy OK
Track 6
Filename Z:\EAC Rips\Chandeen (2011) - Blood Red Skies [flac]\06 - Air.wav
Peak level 100.0 % Extraction speed 7.2 X Track quality 100.0 % Test CRC A806DE59 Copy CRC A806DE59 Accurately ripped (confidence 1) [F5DCE826] (AR v2) Copy OK
Track 7
Filename Z:\EAC Rips\Chandeen (2011) - Blood Red Skies [flac]\07 - Rabbit, Run.wav
Peak level 90.5 % Extraction speed 7.3 X Track quality 100.0 % Test CRC AEDBFA26 Copy CRC AEDBFA26 Accurately ripped (confidence 1) [1C84F18F] (AR v2) Copy OK
Track 8
Filename Z:\EAC Rips\Chandeen (2011) - Blood Red Skies [flac]\08 - World In Between I.wav
Peak level 76.9 % Extraction speed 6.4 X Track quality 100.0 % Test CRC D2AF3CA8 Copy CRC D2AF3CA8 Accurately ripped (confidence 1) [941CE1A3] (AR v2) Copy OK
Track 9
Filename Z:\EAC Rips\Chandeen (2011) - Blood Red Skies [flac]\09 - Citylights.wav
Peak level 97.9 % Extraction speed 7.8 X Track quality 100.0 % Test CRC 16E94737 Copy CRC 16E94737 Accurately ripped (confidence 1) [527758B9] (AR v2) Copy OK
Track 10
Filename Z:\EAC Rips\Chandeen (2011) - Blood Red Skies [flac]\10 - The Longing.wav
Peak level 98.9 % Extraction speed 8.1 X Track quality 100.0 % Test CRC A252C20A Copy CRC A252C20A Accurately ripped (confidence 1) [80914F77] (AR v2) Copy OK
Track 11
Filename Z:\EAC Rips\Chandeen (2011) - Blood Red Skies [flac]\11 - New Morning II.wav
Peak level 96.6 % Extraction speed 7.9 X Track quality 100.0 % Test CRC 761CBF3F Copy CRC 761CBF3F Accurately ripped (confidence 1) [BDB106E9] (AR v2) Copy OK
Track 12
Filename Z:\EAC Rips\Chandeen (2011) - Blood Red Skies [flac]\12 - Sunset Serenade.wav
Peak level 97.4 % Extraction speed 8.5 X Track quality 100.0 % Test CRC 5F265935 Copy CRC 5F265935 Accurately ripped (confidence 1) [B80CE45B] (AR v2) Copy OK
Track 13
Filename Z:\EAC Rips\Chandeen (2011) - Blood Red Skies [flac]\13 - Floating To The Stars III.wav
Peak level 97.9 % Extraction speed 8.4 X Track quality 99.9 % Test CRC 626D19E2 Copy CRC 626D19E2 Accurately ripped (confidence 1) [5EB032A6] (AR v2) Copy OK
Track 14
Filename Z:\EAC Rips\Chandeen (2011) - Blood Red Skies [flac]\14 - Until The Dawn.wav
Peak level 97.5 % Extraction speed 6.7 X Track quality 100.0 % Test CRC 3888D8DA Copy CRC 3888D8DA Accurately ripped (confidence 1) [5D6A5492] (AR v2) Copy OK
All tracks accurately ripped
No errors occurred
End of status report
---- CUETools DB Plugin V2.1.4
[CTDB TOCID: K5kI2hTZgyY8GO9Z6qz.Yt4t1Ms-] disk not present in databaseSubmit result: K5kI2hTZgyY8GO9Z6qz.Yt4t1Ms- has been uploaded
==== Log checksum 9B858C84BBD9D2277259B30A561AD0E698CBD88BC69CC5FAD3F840BA0D92BD96 ====

Содержание индексной карты (.CUE)

REM GENRE Trip-HopREM DATE 2011REM DISCID D30CC20EREM COMMENT "ExactAudioCopy v1.0b3"PERFORMER "Chandeen"TITLE "Blood Red Skies"FILE "01 - Stars Can Frighten.wav" WAVE TRACK 01 AUDIO TITLE "Stars Can Frighten" PERFORMER "Chandeen" ISRC DEDE20600261 INDEX 01 00:00:00FILE "02 - Shadows Fade.wav" WAVE TRACK 02 AUDIO TITLE "Shadows Fade" PERFORMER "Chandeen" ISRC DEDE20600262 INDEX 01 00:00:00FILE "03 - Farewall To Love.wav" WAVE TRACK 03 AUDIO TITLE "Farewall To Love" PERFORMER "Chandeen" ISRC DEDE20600263 INDEX 01 00:00:00FILE "04 - Blood Red Skies.wav" WAVE TRACK 04 AUDIO TITLE "Blood Red Skies" PERFORMER "Chandeen" ISRC DEDE20600264 INDEX 01 00:00:00FILE "05 - Kiji.wav" WAVE TRACK 05 AUDIO TITLE "Kiji" PERFORMER "Chandeen" ISRC DEDE20600265 INDEX 01 00:00:00FILE "06 - Air.wav" WAVE TRACK 06 AUDIO TITLE "Air" PERFORMER "Chandeen" ISRC DEDE20600266 INDEX 01 00:00:00FILE "07 - Rabbit, Run.wav" WAVE TRACK 07 AUDIO TITLE "Rabbit, Run" PERFORMER "Chandeen" ISRC DEDE20600267 INDEX 01 00:00:00FILE "08 - World In Between I.wav" WAVE TRACK 08 AUDIO TITLE "World In Between I" PERFORMER "Chandeen" ISRC DEDE20600268 INDEX 01 00:00:00FILE "09 - Citylights.wav" WAVE TRACK 09 AUDIO TITLE "Citylights" PERFORMER "Chandeen" ISRC DEDE20600269 INDEX 01 00:00:00FILE "10 - The Longing.wav" WAVE TRACK 10 AUDIO TITLE "The Longing" PERFORMER "Chandeen" ISRC DEDE20600270 INDEX 01 00:00:00FILE "11 - New Morning II.wav" WAVE TRACK 11 AUDIO TITLE "New Morning II" PERFORMER "Chandeen" ISRC DEDE20600271 INDEX 01 00:00:00FILE "12 - Sunset Serenade.wav" WAVE TRACK 12 AUDIO TITLE "Sunset Serenade" PERFORMER "Chandeen" ISRC DEDE20600271 INDEX 01 00:00:00FILE "13 - Floating To The Stars III.wav" WAVE TRACK 13 AUDIO TITLE "Floating To The Stars III" PERFORMER "Chandeen" ISRC DEDE20600273 INDEX 01 00:00:00FILE "14 - Until The Dawn.wav" WAVE TRACK 14 AUDIO TITLE "Until The Dawn" PERFORMER "Chandeen" INDEX 01 00:00:00


[torrentc.info]_t_5477382.torrent
Торрент: Зарегистрирован ·  [ 2017-11-08 23:42 ] ·  481f4e532c7c33b05f9737034bf799d01804c2f1

31 KB

Статус: проверено
Скачан: 0 раз
Размер: 361 MB
Оценка: 
(Голосов: 0)
Сказали спасибо: 0  Спасибо
Похожие темы
[Профиль]    [ЛС]
Показать сообщения:    
Ответить на тему

Текущее время: Сегодня 09:57

Часовой пояс: GMT + 7



Вы не можете начинать темы
Вы не можете отвечать на сообщения
Вы не можете редактировать свои сообщения
Вы не можете удалять свои сообщения
Вы не можете голосовать в опросах
Вы не можете прикреплять файлы к сообщениям
Вы можете скачивать файлы