(IDM, Acid, Hardcore) [CD] VA - Zeitgeist - Spirit Ov Thee Times - 1995, FLAC (tracks+.cue), lossless

Ответить на тему
Статистика раздачи [Обновить пиров]
Размер:  441 MB   |    Зарегистрирован:  11 месяцев 14 дней   |    Скачан:  0 раз

Полного источника не было: Никогда

 
   
 
 
 
Автор Сообщение

torrentc.info

Создавать темы 08-Ноя-2017 23:46

[Цитировать]

Zeitgeist - Spirit Ov Thee Times
Жанр: IDM, Acid, Hardcore
Носитель: CD
Страна-производитель диска (релиза): Australia
Год издания: 1995
Издатель (лейбл): if?
Номер по каталогу: IF001
Аудиокодек: FLAC (*.flac)
Тип рипа: tracks+.cue
Битрейт аудио: lossless
Продолжительность: 74:00
Источник (релизер): what.cd
Наличие сканов в содержимом раздачи: нет
Треклист:
01. TDM - Printerex (7:02)
02. TR-Storm - Rise (11:57)
03. Sonic Voyagers - Beyond The Infinite (Warp Cruise Remix) (6:44)
04. FSOM - Welcome (Thomas P. Heckmann Remix) (6:51)
05. Amnesia - Bellmaze (4:20)
06. Q-Kontrol vs. Faktor - Bioplexus (8:49)
07. Voiteck - Damage (7:54)
08. Zen Paradox - Rise From The Depths (5:52)
09. Pura - Manual Hamburger (5:24)
10. Soulenoid - Ra! (6:08)
11. Rapture - The Joker Waves Goodbye... (2:54)

Содержание индексной карты (.CUE)

REM GENRE ElectronicREM DATE 1995REM DISCID 9B11580BREM COMMENT "ExactAudioCopy v0.99pb5"FILE "Range.wav" WAVE TRACK 01 AUDIO FLAGS DCP INDEX 01 00:00:00 TRACK 02 AUDIO INDEX 01 07:02:55 TRACK 03 AUDIO INDEX 01 18:59:70 TRACK 04 AUDIO INDEX 01 25:44:29 TRACK 05 AUDIO INDEX 01 32:36:23 TRACK 06 AUDIO INDEX 01 36:56:71 TRACK 07 AUDIO INDEX 01 45:46:68 TRACK 08 AUDIO INDEX 01 53:41:22 TRACK 09 AUDIO INDEX 01 59:34:19 TRACK 10 AUDIO INDEX 01 64:58:22 TRACK 11 AUDIO INDEX 01 71:06:51

Лог проверки качества

AUDIOCHECKER v2.0 beta (build 457) - by Dester - opdester@freemail.hu~~~~~~~~~~~~~~~~~~~~~~~~~~~~~~~~~~-=== DO NOT EDIT THIS FILE! ===-
Path: ...\VA - Zeitgeist Spirit Ov Thee Times (1995) (FLAC)
01 -=- 01. TDM - Printerex.flac -=- CDDA (100%)02 -=- 02. TR-storm - Rise.flac -=- CDDA (100%)03 -=- 03. Sonic Voyagers - Beyond the infinite (warp cruise mix).flac -=- CDDA (100%)04 -=- 04. FSOM - Welcome (thomas heckman mix).flac -=- CDDA (99%)05 -=- 05. Amnesia - Bellmaze.flac -=- CDDA (100%)06 -=- 06. Q-kontrol vs faktor - Bioplexus.flac -=- CDDA (100%)07 -=- 07. Voiteck - Damage.flac -=- CDDA (100%)08 -=- 08. Zen paradox - Rise from the depths.flac -=- CDDA (99%)09 -=- 09. Pura - Manual Hamburger.flac -=- CDDA (100%)10 -=- 10. Soulenoid - ra.flac -=- CDDA (100%)11 -=- 11. Rapture - The joker waves goodbye.flac -=- CDDA (100%)
Summary 99,82% CDDA
97914484


[torrentc.info]_t_5475393.torrent
Торрент: Зарегистрирован ·  [ 2017-11-08 23:42 ] ·  6769a187fdc71276624d536b59393965b518f6b8

19 KB

Статус: проверено
Скачан: 0 раз
Размер: 441 MB
Оценка: 
(Голосов: 0)
Сказали спасибо: 0  Спасибо
Похожие темы
[Профиль]    [ЛС]
Показать сообщения:    
Ответить на тему

Текущее время: Сегодня 12:52

Часовой пояс: GMT + 7



Вы не можете начинать темы
Вы не можете отвечать на сообщения
Вы не можете редактировать свои сообщения
Вы не можете удалять свои сообщения
Вы не можете голосовать в опросах
Вы не можете прикреплять файлы к сообщениям
Вы можете скачивать файлы