Утиные Истории / Duck Tales / DuckTales / Сезон: 1 / Серии: 1, 5 из 23 (Дана Тиррас / Dana Terrace) [2017, США, мультфильм, комедия, приключения, AMZN WEB-DL 1080p] Dub + Original

Ответить на тему
Статистика раздачи [Обновить пиров]
Размер:  2.19 GB   |    Зарегистрирован:  1 год 1 месяц   |    Скачан:  0 раз

Полного источника не было: Никогда

 
   
 
 
 
Автор Сообщение

torrentc.info

Создавать темы 05-Ноя-2017 20:50

[Цитировать]


Утиные Истории - Сезон 1 / DuckTales - Season 1
- Страна: США
Жанр: Мультфильм, комедия, приключения, семейный
Продолжительность: 00:44:00 - первая серия, ~00:22:00 - остальные серии
Год выхода: 2017
Перевод: Профессиональный (дублированный) - Невафильм (Канал Disney)
Режиссёр: Дана Тиррас / Dana Terrace
Роли озвучивали: Валерий Кухарешин, Иван Чабан, Александр Быковский, Виталий Куклин, Марианна Мокшина, Александр Матвеев, Татьяна Иванова, Константин Петров, Давид Бродский, Алексей Макрецкий, Наталья Виноградова, Борис Хасанов, Юлия Зоркина
Режиссёр дубляжа: Ольга Ефимова
Ассистент режиссёра: Марианна Мокшина
Автор русского текста: Елена и Лев Вержбицкие
Автор стихов и музыкальный руководитель: Кира Малевская
Звукорежиссёр записи: Светлана Тонгсай
Описание: Перезапуск известнейшего Диснеевского мультсериала. Мультсериал повествует об известном Дакбургском миллиардере Скрудже МакДаке и его внучатых племянниках - Билли, Вилли и Дилли. Племянники, вместе со своим дядей Дональдом Даком, переезжают в поместье Скруджа и вместе с ним погружаются в насыщенную, наполненную приключениями, жизнь.
Список серий:
1. Woo-oo! (Навстречу приключениям)
5. Terror of the Terra-Firmians (Страшные Терра-Фирмиане)
Ссылка на предыдущие и альтернативные раздачи: [url=tracker.php?f=1245&nm=DuckTales+2017]http://Torrentc/forum/tracker.php?f=1245&nm=DuckTales+2017[/url]
Сэмпл: http://multi-up.com/1174196
Качество: AMZN WEB-DL
Формат файла: MKV
Видео: MPEG4 Video (H264) 1920x1080 23.976fps
Аудио 1: Dolby AC3 48000Hz stereo 192kbps [Russian]
Аудио 2: DD+ eac3 48000Hz stereo 224kbps [English]
Субтитры: Английские, отключаемые
Запись с ТВ: zzz666_31_rus
Контроль записи, сведение звука: zhegalua
Отдельное спасибо: SergeZuich
Скриншоты:

Подробные технические характеристики

General
Unique ID : 233091690244868140136248630340289068406 (0xAF5BD39C41CA9D0EACC0DAE259F07D76)
Complete name : D:\Videos\DuckTales 2017\DuckTales 2017 - Season 1 (RU 1080p)\DuckTales.2017.S01E05.Terror.of.the.Terra-Firmians.1080p.AMZN.WEB-DL.RUS.ENG.mkv
Format : Matroska
Format version : Version 4 / Version 2
File size : 603 MiB
Duration : 22 min 7 s
Overall bit rate mode : Variable
Overall bit rate : 3 809 kb/s
Encoded date : UTC 2017-10-31 10:19:09
Writing application : mkvmerge v17.0.0 ('Be Ur Friend') 64-bit
Writing library : libebml v1.3.5 + libmatroska v1.4.8
Video
ID : 1
Format : AVC
Format/Info : Advanced Video Codec
Format profile : High@L4
Format settings : CABAC / 4 Ref Frames
Format settings, CABAC : Yes
Format settings, RefFrames : 4 frames
Codec ID : V_MPEG4/ISO/AVC
Duration : 22 min 7 s
Bit rate mode : Variable
Bit rate : 3 391 kb/s
Maximum bit rate : 15.0 Mb/s
Width : 1 920 pixels
Height : 1 080 pixels
Display aspect ratio : 16:9
Frame rate mode : Constant
Frame rate : 23.976 (24000/1001) FPS
Color space : YUV
Chroma subsampling : 4:2:0
Bit depth : 8 bits
Scan type : Progressive
Bits/(Pixel*Frame) : 0.068
Stream size : 536 MiB (89%)
Default : Yes
Forced : No
Color range : Limited
Color primaries : BT.709
Transfer characteristics : BT.709
Matrix coefficients : BT.709
Audio #1
ID : 2
Format : AC-3
Format/Info : Audio Coding 3
Format settings, Endianness : Big
Codec ID : A_AC3
Duration : 22 min 7 s
Bit rate mode : Constant
Bit rate : 192 kb/s
Channel(s) : 2 channels
Channel positions : Front: L R
Sampling rate : 48.0 kHz
Frame rate : 31.250 FPS (1536 SPF)
Bit depth : 16 bits
Compression mode : Lossy
Stream size : 30.4 MiB (5%)
Language : Russian
Service kind : Complete Main
Default : Yes
Forced : No
Audio #2
ID : 3
Format : E-AC-3
Format/Info : Enhanced Audio Coding 3
Format settings, Endianness : Big
Codec ID : A_EAC3
Duration : 22 min 7 s
Bit rate mode : Constant
Bit rate : 224 kb/s
Channel(s) : 2 channels
Channel positions : Front: L R
Sampling rate : 48.0 kHz
Frame rate : 187.500 FPS (256 SPF)
Compression mode : Lossy
Stream size : 35.4 MiB (6%)
Language : English
Service kind : Complete Main
Default : No
Forced : No
Text
ID : 4
Format : UTF-8
Codec ID : S_TEXT/UTF8
Codec ID/Info : UTF-8 Plain Text
Duration : 21 min 36 s
Bit rate : 85 b/s
Count of elements : 494
Stream size : 13.5 KiB (0%)
Language : English
Default : No
Forced : No

Внимание! Раздача ведётся путём добавления новых серий

Внимание! Раздача ведётся путём добавления новых серий. При каждом добавлении создаётся новый торрент. Чтобы начать докачку новой серии, пользователям необходимо сделать следующее:
1. Остановить скачивание.
2. Удалить старый торрент у себя из клиента (старые серии удалять не надо).
3. Скачать новый торрент и запустить его у себя в клиенте вместо старого, при этом указать клиенту путь в старую папку куда и должно происходить скачивание новых серий.
Ваш клиент при этом должен произвести хеширование (проверку) старой папки (если не производит сам - помогите ему сделать это), и будет докачивать только те серии которых у вас ещё нет. Старые серии при этом не удаляются, а продолжают раздаваться!
Eсли вы уже удалили старые серии, то предотвратить повторную закачку старых серий можно, отжав галочку в соответствующих местах при запуске нового торрента. По возможности, желательно не удалять старые серии как можно дольше, чтобы релизер не столько продолжал раздавать старые серии, а смог сконцентрироваться на новых.


[torrentc.info]_t_5472028.torrent
Торрент: Зарегистрирован ·  [ 2017-11-05 20:48 ] ·  179622eb5ce1a7c0ea90b80ccd8b5db7b99681f6

12 KB

Статус: проверено
Скачан: 0 раз
Размер: 2.19 GB
Оценка: 
(Голосов: 0)
Сказали спасибо: 0  Спасибо
Похожие темы
[Профиль]    [ЛС]
Показать сообщения:    
Ответить на тему

Текущее время: Сегодня 22:03

Часовой пояс: GMT + 7



Вы не можете начинать темы
Вы не можете отвечать на сообщения
Вы не можете редактировать свои сообщения
Вы не можете удалять свои сообщения
Вы не можете голосовать в опросах
Вы не можете прикреплять файлы к сообщениям
Вы можете скачивать файлы