(Vocal Jazz) [CD] Antonella Catanese - Red Inside - 2012, FLAC (tracks+.cue), lossless

Ответить на тему
Статистика раздачи [Обновить пиров]
Размер:  321 MB   |    Зарегистрирован:  1 месяц 17 дней   |    Скачан:  1 раз

Полного источника не было: 1 месяц 9 дней

 
   
 
 
 
Автор Сообщение

torrentc.info

Создавать темы 31-Окт-2017 23:55

[Цитировать]

Antonella Catanese - Red Inside Жанр: Vocal Jazz
Носитель: CD
Год издания: 2012
Издатель (лейбл): Jazzy Record Label
Номер по каталогу: JR0006
Аудиокодек: FLAC (*.flac)
Тип рипа: tracks+.cue
Битрейт аудио: lossless
Продолжительность: 51:47
Источник (релизер): ruskaval
Наличие сканов в содержимом раздачи: да
Треклист:
01. Sogno (5:53)
02. Era una estate (4:20)
03. Like a tune (6:32)
04. Canto dell'anima (3:41)
05. Lovely night (7:13)
06. Red inside (4:03)
07. Alleria (4:27)
08. Don't cry the blues (6:19)
09. Nostalgia (9:21)
Personnel:
Antonella Catanese - vocals
Dino Rubino - trumpet & flugelhorn
Max Ionata - saxes
Giuseppe Mirabella - guitar
Giovanni Mazzarino - piano & arrangements
Riccardo Fioravanti - bass
Nicola Angelucci - drums
 

Об альбоме (сборнике)

It 'release the first album of ANTONELLA CATANESE, published by JazzyRecord.
Antonella Catanese is a composer of texts (in English and Italian) and the musical part of seven of the nine songs included in the album and to which is added "Nostalgia", a song by pianist-composer Giovanni Mazzarino, and to which song has adapted the text . This disc also wanted to include a tribute to the great Neapolitan singer Pino Daniele, with the song "Alleria".
The originals are songs written at different times of his life, are the culmination of a musical journey varied, but where jazz was definitely a very important role.
Study and sing the standards of the American tradition gave her the opportunity to "think" the music in a free manner, free from schemes … It is not a hard "thinking of jazz", perhaps, but not only. Are first of all "songs" with a specific style, where arrangements have certainly a very important role.
These are songs that tell stories … that may belong to each of us, where love is the main protagonist.
With "Red Inside" describes, as well as the meaning of the same title, the red color, the passion, the passion that you can have love and for love, in all its various facets, and certainly in music. A passion … So, for life in general …
The arrangements were handled by Giovanni Mazzarino, musician of long experience, who is also the pianist in the same project. For affiancarla in this work other excellent musicians such as Riccardo Fioravanti on bass, Nicola Angelucci on drums; solos of various songs have been entrusted to Max Ionata on saxophones, Dino Rubino flugelhorn and Giuseppe Mirabella on guitar.
-

Лог создания рипа

X Lossless Decoder version 20121222 (142.2)
XLD extraction logfile from 2013-02-14 19:01:47 +0100
Antonella Catanese / Red inside
Used drive : HL-DT-ST DVDRAM GE20LU11 (revision CL01)Media type : Pressed CD
Ripper mode : XLD Secure RipperDisable audio cache : OK for the drive with a cache less than 1375KiBMake use of C2 pointers : NORead offset correction : 667Max retry count : 100Gap status : Analyzed, Appended (except HTOA)
TOC of the extracted CD Track | Start | Length | Start sector | End sector --------------------------------------------------------- 1 | 00:00:00 | 05:52:54 | 0 | 26453 2 | 05:52:54 | 04:19:47 | 26454 | 45925 3 | 10:12:26 | 06:31:44 | 45926 | 75294 4 | 16:43:70 | 03:40:53 | 75295 | 91847 5 | 20:24:48 | 07:12:60 | 91848 | 124307 6 | 27:37:33 | 04:02:67 | 124308 | 142524 7 | 31:40:25 | 04:27:06 | 142525 | 162555 8 | 36:07:31 | 06:18:57 | 162556 | 190962 9 | 42:26:13 | 09:21:11 | 190963 | 233048
AccurateRip Summary Disc not found in AccurateRip DB.
All Tracks Album gain : -6.59 dB Peak : 1.000000 Statistics Read error : 0 Jitter error (maybe fixed) : 0 Retry sector count : 0 Damaged sector count : 0
Track 01 Filename : /Volumes/8-Jazz + altro/ Flac/ Ok da ul/Antonella Catanese - Red inside (2012) [FLAC] {Schema Records}/01 - Sogno.flac Pre-gap length : 00:02:00
Track gain : -3.43 dB Peak : 1.000000 CRC32 hash (test run) : D1D90CE2 CRC32 hash : D1D90CE2 CRC32 hash (skip zero) : A8AC321A AccurateRip v1 signature : 1BCDBA33 AccurateRip v2 signature : 6BED487B ->Track not present in AccurateRip database. Statistics Read error : 0 Jitter error (maybe fixed) : 0 Retry sector count : 0 Damaged sector count : 0
Track 02 Filename : /Volumes/8-Jazz + altro/ Flac/ Ok da ul/Antonella Catanese - Red inside (2012) [FLAC] {Schema Records}/02 - Era una estate.flac
Track gain : -6.03 dB Peak : 1.000000 CRC32 hash (test run) : CFB780E8 CRC32 hash : CFB780E8 CRC32 hash (skip zero) : C9FD8462 AccurateRip v1 signature : 48D0BA8E AccurateRip v2 signature : CA792B12 ->Track not present in AccurateRip database. Statistics Read error : 0 Jitter error (maybe fixed) : 0 Retry sector count : 0 Damaged sector count : 0
Track 03 Filename : /Volumes/8-Jazz + altro/ Flac/ Ok da ul/Antonella Catanese - Red inside (2012) [FLAC] {Schema Records}/03 - Like a tune.flac
Track gain : -4.90 dB Peak : 1.000000 CRC32 hash (test run) : 048EF06C CRC32 hash : 048EF06C CRC32 hash (skip zero) : 29680D0E AccurateRip v1 signature : 349F88FF AccurateRip v2 signature : 016EC91F ->Track not present in AccurateRip database. Statistics Read error : 0 Jitter error (maybe fixed) : 0 Retry sector count : 0 Damaged sector count : 0
Track 04 Filename : /Volumes/8-Jazz + altro/ Flac/ Ok da ul/Antonella Catanese - Red inside (2012) [FLAC] {Schema Records}/04 - Canto dell'anima.flac
Track gain : 3.09 dB Peak : 0.935059 CRC32 hash (test run) : F7D9E4B7 CRC32 hash : F7D9E4B7 CRC32 hash (skip zero) : 4BAF3EEA AccurateRip v1 signature : 94EF81A1 AccurateRip v2 signature : ED013A6E ->Track not present in AccurateRip database. Statistics Read error : 0 Jitter error (maybe fixed) : 0 Retry sector count : 0 Damaged sector count : 0
Track 05 Filename : /Volumes/8-Jazz + altro/ Flac/ Ok da ul/Antonella Catanese - Red inside (2012) [FLAC] {Schema Records}/05 - Lovely night.flac
Track gain : -7.31 dB Peak : 1.000000 CRC32 hash (test run) : 2643DF41 CRC32 hash : 2643DF41 CRC32 hash (skip zero) : D74B7D48 AccurateRip v1 signature : 742AFF04 AccurateRip v2 signature : D621583C ->Track not present in AccurateRip database. Statistics Read error : 0 Jitter error (maybe fixed) : 0 Retry sector count : 0 Damaged sector count : 0
Track 06 Filename : /Volumes/8-Jazz + altro/ Flac/ Ok da ul/Antonella Catanese - Red inside (2012) [FLAC] {Schema Records}/06 - Red inside.flac
Track gain : -7.64 dB Peak : 1.000000 CRC32 hash (test run) : A87B1413 CRC32 hash : A87B1413 CRC32 hash (skip zero) : A1876E99 AccurateRip v1 signature : 08BD4288 AccurateRip v2 signature : FD48149E ->Track not present in AccurateRip database. Statistics Read error : 0 Jitter error (maybe fixed) : 0 Retry sector count : 0 Damaged sector count : 0
Track 07 Filename : /Volumes/8-Jazz + altro/ Flac/ Ok da ul/Antonella Catanese - Red inside (2012) [FLAC] {Schema Records}/07 - Alleria.flac
Track gain : -8.56 dB Peak : 1.000000 CRC32 hash (test run) : DE411BDC CRC32 hash : DE411BDC CRC32 hash (skip zero) : 55E3DA06 AccurateRip v1 signature : 8267DCC7 AccurateRip v2 signature : 2DB31F7A ->Track not present in AccurateRip database. Statistics Read error : 0 Jitter error (maybe fixed) : 0 Retry sector count : 0 Damaged sector count : 0
Track 08 Filename : /Volumes/8-Jazz + altro/ Flac/ Ok da ul/Antonella Catanese - Red inside (2012) [FLAC] {Schema Records}/08 - Don't cry the blues.flac
Track gain : -7.43 dB Peak : 1.000000 CRC32 hash (test run) : 7CDE3E50 CRC32 hash : 7CDE3E50 CRC32 hash (skip zero) : 9CED8BE0 AccurateRip v1 signature : 3645CE84 AccurateRip v2 signature : 1B95D627 ->Track not present in AccurateRip database. Statistics Read error : 0 Jitter error (maybe fixed) : 0 Retry sector count : 0 Damaged sector count : 0
Track 09 Filename : /Volumes/8-Jazz + altro/ Flac/ Ok da ul/Antonella Catanese - Red inside (2012) [FLAC] {Schema Records}/09 - Nostalgia.flac
Track gain : -6.28 dB Peak : 1.000000 CRC32 hash (test run) : F4EF360A CRC32 hash : F4EF360A CRC32 hash (skip zero) : 914524B1 AccurateRip v1 signature : 718D2722 AccurateRip v2 signature : 04D5F38C ->Track not present in AccurateRip database. Statistics Read error : 0 Jitter error (maybe fixed) : 0 Retry sector count : 0 Damaged sector count : 0
No errors occurred
End of status report

Содержание индексной карты (.CUE)

TITLE "Red inside"PERFORMER "Antonella Catanese"REM GENRE "Jazz"REM DATE "2012"REM DISCID 700C2309REM REPLAYGAIN_ALBUM_GAIN -6.59 dBREM REPLAYGAIN_ALBUM_PEAK 1.000000FILE "01 - Sogno.wav" WAVE TRACK 01 AUDIO TITLE "Sogno" REM REPLAYGAIN_TRACK_GAIN -3.43 dB REM REPLAYGAIN_TRACK_PEAK 1.000000 INDEX 01 00:00:00FILE "02 - Era una estate.wav" WAVE TRACK 02 AUDIO TITLE "Era una estate" REM REPLAYGAIN_TRACK_GAIN -6.03 dB REM REPLAYGAIN_TRACK_PEAK 1.000000 INDEX 01 00:00:00FILE "03 - Like a tune.wav" WAVE TRACK 03 AUDIO TITLE "Like a tune" REM REPLAYGAIN_TRACK_GAIN -4.90 dB REM REPLAYGAIN_TRACK_PEAK 1.000000 INDEX 01 00:00:00FILE "04 - Canto dell'anima.wav" WAVE TRACK 04 AUDIO TITLE "Canto dell'anima" REM REPLAYGAIN_TRACK_GAIN 3.09 dB REM REPLAYGAIN_TRACK_PEAK 0.935059 INDEX 01 00:00:00FILE "05 - Lovely night.wav" WAVE TRACK 05 AUDIO TITLE "Lovely night" REM REPLAYGAIN_TRACK_GAIN -7.31 dB REM REPLAYGAIN_TRACK_PEAK 1.000000 INDEX 01 00:00:00FILE "06 - Red inside.wav" WAVE TRACK 06 AUDIO TITLE "Red inside" REM REPLAYGAIN_TRACK_GAIN -7.64 dB REM REPLAYGAIN_TRACK_PEAK 1.000000 INDEX 01 00:00:00FILE "07 - Alleria.wav" WAVE TRACK 07 AUDIO TITLE "Alleria" REM REPLAYGAIN_TRACK_GAIN -8.56 dB REM REPLAYGAIN_TRACK_PEAK 1.000000 INDEX 01 00:00:00FILE "08 - Don't cry the blues.wav" WAVE TRACK 08 AUDIO TITLE "Don't cry the blues" REM REPLAYGAIN_TRACK_GAIN -7.43 dB REM REPLAYGAIN_TRACK_PEAK 1.000000 INDEX 01 00:00:00FILE "09 - Nostalgia.wav" WAVE TRACK 09 AUDIO TITLE "Nostalgia" REM REPLAYGAIN_TRACK_GAIN -6.28 dB REM REPLAYGAIN_TRACK_PEAK 1.000000 INDEX 01 00:00:00

[torrentc.info]_t_5457480.torrent
Торрент: Зарегистрирован ·  [ 2017-10-31 23:54 ] ·  c49b3bb03b14359ed53063de82a140ec007b9dc5

14 KB

Статус: проверено
Скачан: 1 раз
Размер: 321 MB
Оценка: 
(Голосов: 0)
Сказали спасибо: 0  Спасибо
Похожие темы
[Профиль]    [ЛС]
Показать сообщения:    
Ответить на тему

Текущее время: Сегодня 14:02

Часовой пояс: GMT + 7



Вы не можете начинать темы
Вы не можете отвечать на сообщения
Вы не можете редактировать свои сообщения
Вы не можете удалять свои сообщения
Вы не можете голосовать в опросах
Вы не можете прикреплять файлы к сообщениям
Вы можете скачивать файлы