Украденное счастье / Украдене щастя (Гнат Юра, Исаак Шмарук) [1952, драма, экранизация, DVB] Киевский академический Украинский драматический театр имени Ивана Франко

Ответить на тему
Статистика раздачи [Обновить пиров]
Размер:  2.13 GB   |    Зарегистрирован:  10 месяцев 21 день   |    Скачан:  0 раз

Полного источника не было: Никогда

 
   
 
 
 
Автор Сообщение

torrentc.info

Создавать темы 28-Окт-2017 22:48

[Цитировать]

Украденное счастье / Украдене щастя- Название театра: Киевский академический Украинский драматический театр имени Ивана Франко
Студия: Киевская киностудия художественных фильмов
Жанр: драма, экранизация
Год выхода: 1952
Продолжительность: 01:41:15
Перевод: Субтитры
Язык: Украинский
Субтитры: русские
Оригинальная аудиодорожка: украинский-Режиссёр: Гнат Юра, Исаак Шмарук
В ролях: Амвросий Бучма, Наталья Ужвий, Виктор Добровольский, Николай Яковченко, Любовь Комарецкая, Иван Маркевич, Варвара Чайка, Константин Кульчицкий-Описание: Фильм-спектакль по одноименной классической драме Ивана Франко. Действие разворачивается в Карпатах в 1870-х годах. В центре сюжета - классический любовный треугольник, сплетающий воедино жизни трех людей: Анны, ее мужа Николая и возлюбленного Анны - Михаила.-Доп. информация:
Файл содержит две звуковые дорожки. Вторая дорожка - исходная с эфира, с писком. Первая дорожка - без писка.-: -Семпл: http://sendfile.su/1371406-Качество видео: DVB
Формат файла: MKV
Видео: 720x576 (4:3) @ 768x576, 25.000 fps, MPEG-2 Video, ~2699 Kbps
Аудио 1: Українська, 48.0 KHz, AC3, 1 ch, 128 Kbps - Filtered
Аудио 2: Українська, 48.0 KHz, MP2, 2 ch, 128 Kbps - Original

MediaInfo

General
Unique ID : 219318511798056354376759975605605638904 (0xA4FF357BFAD6AEA893EE3ECD463622F8)
Complete name : Украденное счастье 1952 [UA.Культура].mkv
Format : Matroska
Format version : Version 4 / Version 2
File size : 2.13 GiB
Duration : 1 h 41 min
Overall bit rate mode : Variable
Overall bit rate : 3 015 kb/s
Encoded date : UTC 2017-10-22 20:12:25
Writing application : mkvmerge v17.0.0 ('Be Ur Friend') 64-bit
Writing library : libebml v1.3.5 + libmatroska v1.4.8
Video
ID : 1
Format : MPEG Video
Format version : Version 2
Format profile : Main@Main
Format settings : CustomMatrix / BVOP
Format settings, BVOP : Yes
Format settings, Matrix : Custom
Format settings, GOP : Variable
Format settings, picture structure : Frame
Codec ID : V_MPEG2
Codec ID/Info : MPEG 1 or 2 Video
Duration : 1 h 41 min
Bit rate mode : Variable
Bit rate : 2 755 kb/s
Maximum bit rate : 15.0 Mb/s
Width : 720 pixels
Height : 576 pixels
Display aspect ratio : 4:3
Frame rate mode : Constant
Frame rate : 25.000 FPS
Standard : PAL
Color space : YUV
Chroma subsampling : 4:2:0
Bit depth : 8 bits
Scan type : Interlaced
Scan order : Top Field First
Compression mode : Lossy
Bits/(Pixel*Frame) : 0.266
Time code of first frame : 00:00:00:00
Time code source : Group of pictures header
GOP, Open/Closed : Open
GOP, Open/Closed of first frame : Closed
Stream size : 1.95 GiB (91%)
Default : Yes
Forced : No
Audio #1
ID : 2
Format : AC-3
Format/Info : Audio Coding 3
Format settings, Endianness : Big
Codec ID : A_AC3
Duration : 1 h 41 min
Bit rate mode : Constant
Bit rate : 128 kb/s
Channel(s) : 1 channel
Channel positions : Front: C
Sampling rate : 48.0 kHz
Frame rate : 31.250 FPS (1536 SPF)
Bit depth : 16 bits
Compression mode : Lossy
Stream size : 92.7 MiB (4%)
Title : Filtered
Language : Ukrainian
Service kind : Complete Main
Default : Yes
Forced : No
Audio #2
ID : 3
Format : MPEG Audio
Format version : Version 1
Format profile : Layer 2
Codec ID : A_MPEG/L2
Codec ID/Hint : MP2
Duration : 1 h 41 min
Bit rate mode : Constant
Bit rate : 128 kb/s
Channel(s) : 2 channels
Sampling rate : 48.0 kHz
Frame rate : 41.667 FPS (1152 SPF)
Compression mode : Lossy
Stream size : 92.7 MiB (4%)
Title : Original
Language : Ukrainian
Default : No
Forced : No
Text
ID : 4
Format : UTF-8
Codec ID : S_TEXT/UTF8
Codec ID/Info : UTF-8 Plain Text
Duration : 1 h 38 min
Bit rate : 113 b/s
Count of elements : 1164
Stream size : 82.0 KiB (0%)
Title : kingsun
Language : Russian
Default : Yes
Forced : No
Источник: Torrentc с VHSRip">

Скриншоты Источник: Torrentc с VHSRip


VHSRip http://Torrentc/forum/viewtopic.php?t=4431154

UA:Культура


[torrentc.info]_t_5469919.torrent
Торрент: Зарегистрирован ·  [ 2017-10-28 22:48 ] ·  c9ea90c4a082efaa751827a78c234a07777839fd

11 KB

Статус: проверено
Скачан: 0 раз
Размер: 2.13 GB
Оценка: 
(Голосов: 0)
Сказали спасибо: 0  Спасибо
Похожие темы
[Профиль]    [ЛС]
Показать сообщения:    
Ответить на тему

Текущее время: Сегодня 08:19

Часовой пояс: GMT + 7



Вы не можете начинать темы
Вы не можете отвечать на сообщения
Вы не можете редактировать свои сообщения
Вы не можете удалять свои сообщения
Вы не можете голосовать в опросах
Вы не можете прикреплять файлы к сообщениям
Вы можете скачивать файлы