(Vocal Jazz) [CD] Rosey - Luckiest Girl - 2008, FLAC (image+.cue), lossless

Ответить на тему
Статистика раздачи [Обновить пиров]
Размер:  343 MB   |    Зарегистрирован:  1 месяц 24 дня   |    Скачан:  0 раз

Полного источника не было: Никогда

 
   
 
 
 
Автор Сообщение

torrentc.info

Создавать темы 25-Окт-2017 07:30

[Цитировать]

Rosey - Luckiest Girl Жанр: Vocal Jazz
Носитель: CD
Год издания: 2008
Издатель (лейбл): Quango Music
Номер по каталогу: QMG 1028-2
Аудиокодек: FLAC (*.flac)
Тип рипа: image+.cue
Битрейт аудио: lossless
Продолжительность: 45:13
Rip by sergych
Наличие сканов в содержимом раздачи: да
Треклист:
01. It's A Ruse (3:27)
02. Who Am I (4:18)
03. Love (original version) (3:53)
04. I Remember (4:41)
05. My Love (3:50)
06. Those Eyes (2:29)
07. Luckiest Girl (4:03)
08. Be Somebody Blues (3:24)
09. It's Easier On Me (4:49)
10. Hand In Hand (4:02)
11. First Time (3:44)
12. The Old Fashioned Way (2:35)
 

AllMusic Review by Jo-Ann Greene

Six years on from her debut album Dirty Child, Rosey returns with her sophomore set. In the interim, a proposed covers album was scrapped after the singer decided a tribute album to her musical heroines made less sense than allowing their inspiration to work through her. The result is Luckiest Girl, an album that allows the singer/songwriter to explore at length her jazz influences. Those influences are wide-ranging, encompassing artists as far afield as Billie Holiday and Nina Simone, and makes for a surprisingly eclectic set. Roaming down yesteryear's path, Rosey hits some unintentional dead ends along the way, for not all her attempts to blend jazz and pop succeed. What works best are a clutch of big-band styled songs, including the sassy "Those Eyes," the slinky, sultry set opener "It's a Ruse," the defiantly upbeat "Be Somebody Blues," and the smoky torch song "It's Easier on Me." Her old hit "Love" is also subtly reworked to great effect, its Latin rhythms accentuated and counter-pointed by moody, gypsy flavored passages. Equally good is the sophisticated sound of "Who Am I" awash in a supper club atmosphere. On all these songs, Rosey successfully channels vocal icons,
but on "I Remember," she instinctively keeps sliding into pop, rather ruining the carefully crafted mood of the song. The title track is even worse, an uneasy mix of jazz and soft pop. And soon Rosey's real roots are showing as the album draws to a close with a trio of unabashedly pop ballads, just the kind with which she made her name. Still, you can't fault an artist for attempting to grow, even if it's with some fits and starts. Overall her optimistic lyrics show real maturity, while the melodies, by and large, are strong. And it says much about the strength of her performances and material that listeners will appreciate the arrangements, while ruing Rosey wasn't singing before an actual big band.
-

Лог создания рипа

Exact Audio Copy V1.3 from 2. September 2016
EAC extraction logfile from 31. July 2017, 1:32
Rosey / Luckiest Girl
Used drive : PLEXTOR DVDR PX-716A Adapter: 1 ID: 0
Read mode : SecureUtilize accurate stream : YesDefeat audio cache : YesMake use of C2 pointers : No
Read offset correction : 30Overread into Lead-In and Lead-Out : NoFill up missing offset samples with silence : YesDelete leading and trailing silent blocks : NoNull samples used in CRC calculations : YesUsed interface : Installed external ASPI interface
Used output format : User Defined EncoderSelected bitrate : 1024 kBit/sQuality : HighAdd ID3 tag : NoCommand line compressor : C:\Program Files (x86)\Exact Audio Copy\Flac\flac.exeAdditional command line options : -6 -V -T "ARTIST=%artist%" -T "TITLE=%title%" -T "ALBUM=%albumtitle%" -T "DATE=%year%" -T "TRACKNUMBER=%tracknr%" -T "GENRE=%genre%" -T "COMMENT=%comment%" -T "BAND=%albuminterpret%" -T "ALBUMARTIST=%albuminterpret%" -T "COMPOSER=%composer%" %haslyrics%--tag-from-file=LYRICS="%lyricsfile%"%haslyrics% -T "DISCNUMBER=%cdnumber%" -T "TOTALDISCS=%totalcds%" -T "TOTALTRACKS=%numtracks%" %hascover%--picture="%coverfile%"%hascover% %source% -o %dest%
TOC of the extracted CD
Track | Start | Length | Start sector | End sector --------------------------------------------------------- 1 | 0:00.00 | 3:27.25 | 0 | 15549 2 | 3:27.25 | 4:17.57 | 15550 | 34881 3 | 7:45.07 | 3:52.38 | 34882 | 52319 4 | 11:37.45 | 4:40.60 | 52320 | 73379 5 | 16:18.30 | 3:50.35 | 73380 | 90664 6 | 20:08.65 | 2:28.55 | 90665 | 101819 7 | 22:37.45 | 4:02.45 | 101820 | 120014 8 | 26:40.15 | 3:23.57 | 120015 | 135296 9 | 30:03.72 | 4:48.58 | 135297 | 156954 10 | 34:52.55 | 4:01.40 | 156955 | 175069 11 | 38:54.20 | 3:43.60 | 175070 | 191854 12 | 42:38.05 | 2:34.70 | 191855 | 203474
Range status and errors
Selected range
Filename C:\mm\Rosey\2008 - Luckiest Girl [QMG 1028-2]\Rosey - Luckiest Girl.wav
Peak level 99.6 % Extraction speed 12.3 X Range quality 100.0 % Test CRC E45ECA60 Copy CRC E45ECA60 Copy OK
No errors occurred
End of status report
---- CUETools DB Plugin V2.1.6
[CTDB TOCID: V8xuF4zUH_7e5CxwZ7nh7bgH_0o-] foundSubmit result: V8xuF4zUH_7e5CxwZ7nh7bgH_0o- has been confirmedTrack | CTDB Status 1 | (2/2) Accurately ripped 2 | (2/2) Accurately ripped 3 | (2/2) Accurately ripped 4 | (2/2) Accurately ripped 5 | (2/2) Accurately ripped 6 | (2/2) Accurately ripped 7 | (2/2) Accurately ripped 8 | (2/2) Accurately ripped 9 | (2/2) Accurately ripped 10 | (2/2) Accurately ripped 11 | (2/2) Accurately ripped 12 | (2/2) Accurately ripped

Содержание индексной карты (.CUE)

REM GENRE JazzREM DATE 2008REM DISCID 9E0A990CREM COMMENT "ExactAudioCopy v1.3"PERFORMER "Rosey"TITLE "Luckiest Girl"REM COMPOSER ""FILE "Rosey - Luckiest Girl.flac" WAVE TRACK 01 AUDIO TITLE "It's A Ruse" PERFORMER "Rosey" REM COMPOSER "" INDEX 01 00:00:00 TRACK 02 AUDIO TITLE "Who Am I" PERFORMER "Rosey" REM COMPOSER "" INDEX 01 03:27:25 TRACK 03 AUDIO TITLE "Love (original version)" PERFORMER "Rosey" REM COMPOSER "" INDEX 01 07:45:07 TRACK 04 AUDIO TITLE "I Remember" PERFORMER "Rosey" REM COMPOSER "" INDEX 01 11:37:45 TRACK 05 AUDIO TITLE "My Love" PERFORMER "Rosey" REM COMPOSER "" INDEX 01 16:18:30 TRACK 06 AUDIO TITLE "Those Eyes" PERFORMER "Rosey" REM COMPOSER "" INDEX 01 20:08:65 TRACK 07 AUDIO TITLE "Luckiest Girl" PERFORMER "Rosey" REM COMPOSER "" INDEX 01 22:37:45 TRACK 08 AUDIO TITLE "Be Somebody Blues" PERFORMER "Rosey" REM COMPOSER "" INDEX 01 26:40:15 TRACK 09 AUDIO TITLE "It's Easier On Me" PERFORMER "Rosey" REM COMPOSER "" INDEX 01 30:03:72 TRACK 10 AUDIO TITLE "Hand In Hand" PERFORMER "Rosey" REM COMPOSER "" INDEX 01 34:52:55 TRACK 11 AUDIO TITLE "First Time" PERFORMER "Rosey" REM COMPOSER "" INDEX 01 38:54:20 TRACK 12 AUDIO TITLE "The Old Fashioned Way" PERFORMER "Rosey" REM COMPOSER "" INDEX 01 42:38:05

[torrentc.info]_t_5442425.torrent
Торрент: Зарегистрирован ·  [ 2017-10-25 07:30 ] ·  5fc8afbc0011600e817ca67e18540371cdc8cb37

14 KB

Статус: проверено
Скачан: 0 раз
Размер: 343 MB
Оценка: 
(Голосов: 0)
Сказали спасибо: 0  Спасибо
Похожие темы
[Профиль]    [ЛС]
Показать сообщения:    
Ответить на тему

Текущее время: Сегодня 13:54

Часовой пояс: GMT + 7



Вы не можете начинать темы
Вы не можете отвечать на сообщения
Вы не можете редактировать свои сообщения
Вы не можете удалять свои сообщения
Вы не можете голосовать в опросах
Вы не можете прикреплять файлы к сообщениям
Вы можете скачивать файлы