(IDM, Leftfield, Techno, Electro) Soul Oddity - Tone Capsule - 1996, FLAC (tracks+.cue), lossless

Ответить на тему
Статистика раздачи [Обновить пиров]
Размер:  359 MB   |    Зарегистрирован:  10 месяцев 1 день   |    Скачан:  0 раз

Полного источника не было: Никогда

Личеров:  1  [  0 KB/s  ]   Подробная статистика скачивающих
 
   
 
 
 
Автор Сообщение

torrentc.info

Создавать темы 18-Окт-2017 22:55

[Цитировать]


Soul Oddity -- Tone Capsule
Жанр: IDM,Leftfield, Techno, Electro
Год выхода диска: 1996
Производитель диска: UK
Аудио кодек: FLAC
Тип рипа: tracks+.cue
Битрейт аудио: lossless
Продолжительность: 63:55
Трэклист:
1 Mezzo Modular (1:04)
2 Welcome Back To Earth (6:50)
3 Little Alien (6:37)
4 People Party (7:47)
5 Freq Shift (6:02)
6 Clipped (7:48)
7 Soul Communication (5:50)
8 DJ Tokyo (6:19)
9 Cruxx (7:02)
10 Fugue (8:27)

Log EAC

EAC extraction logfile from 5. February 2007, 7:09 for CDSOUL ODDITY / Tone Capsule
Used drive : LITE-ON DVDRW SHW-1635S Adapter: 3 ID: 1Read mode : Secure with NO C2, accurate stream, disable cacheRead offset correction : 6Overread into Lead-In and Lead-Out : No
Used output format : C:\Program Files\eac095b3\Exact Audio Copy\flac.exe (User Defined Encoder) 192 kBit/s Additional command line options : -V -5 -T "artist=%a" -T "title=%t" -T "album=%g" -T "date=%y" -T "tracknumber=%n" -T "genre=%m" %s
Other options : Fill up missing offset samples with silence : Yes Delete leading and trailing silent blocks : No Installed external ASPI interface
Track 1 Filename G:\OiNK\Uploads\Soul Oddity - Tone Capsule\01 - SOUL ODDITY - Mezzo Modular.wav
Pre-gap length 0:00:02.00
Peak level 100.0 % Track quality 100.0 % Test CRC 839B383D Copy CRC 839B383D Copy OK
Track 2 Filename G:\OiNK\Uploads\Soul Oddity - Tone Capsule\02 - SOUL ODDITY - Welcome Back to Earth.wav
Peak level 100.0 % Track quality 100.0 % Test CRC A58E2376 Copy CRC A58E2376 Copy OK
Track 3 Filename G:\OiNK\Uploads\Soul Oddity - Tone Capsule\03 - SOUL ODDITY - Little Alien.wav
Peak level 100.0 % Track quality 100.0 % Test CRC 1C1075F6 Copy CRC 1C1075F6 Copy OK
Track 4 Filename G:\OiNK\Uploads\Soul Oddity - Tone Capsule\04 - SOUL ODDITY - People Party.wav
Peak level 100.0 % Track quality 99.9 % Test CRC 20725314 Copy CRC 20725314 Copy OK
Track 5 Filename G:\OiNK\Uploads\Soul Oddity - Tone Capsule\05 - SOUL ODDITY - Freq Shift.wav
Peak level 100.0 % Track quality 100.0 % Test CRC 190325B1 Copy CRC 190325B1 Copy OK
Track 6 Filename G:\OiNK\Uploads\Soul Oddity - Tone Capsule\06 - SOUL ODDITY - Clipped.wav
Peak level 100.0 % Track quality 100.0 % Test CRC 338CF658 Copy CRC 338CF658 Copy OK
Track 7 Filename G:\OiNK\Uploads\Soul Oddity - Tone Capsule\07 - SOUL ODDITY - Soul Communication.wav
Peak level 100.0 % Track quality 100.0 % Test CRC B88E64DE Copy CRC B88E64DE Copy OK
Track 8 Filename G:\OiNK\Uploads\Soul Oddity - Tone Capsule\08 - SOUL ODDITY - DJ Tokyo.wav
Peak level 100.0 % Track quality 100.0 % Test CRC 6BB7B1BE Copy CRC 6BB7B1BE Copy OK
Track 9 Filename G:\OiNK\Uploads\Soul Oddity - Tone Capsule\09 - SOUL ODDITY - Cruxx.wav
Peak level 100.0 % Track quality 100.0 % Test CRC E113D0AD Copy CRC E113D0AD Copy OK
Track 10 Filename G:\OiNK\Uploads\Soul Oddity - Tone Capsule\10 - SOUL ODDITY - Fugue.wav
Peak level 100.0 % Track quality 100.0 % Test CRC 95A510A5 Copy CRC 95A510A5 Copy OK
No errors occured
End of status report


[torrentc.info]_t_1417261.torrent
Торрент: Зарегистрирован ·  [ 2017-10-18 22:48 ] ·  2fb4c75b52b44c60cfc31bcb46621beb0f0652b9

30 KB

Статус: проверено
Скачан: 0 раз
Размер: 359 MB
Оценка: 
(Голосов: 0)
Сказали спасибо: 0  Спасибо
Похожие темы
[Профиль]    [ЛС]
Показать сообщения:    
Ответить на тему

Текущее время: Сегодня 00:15

Часовой пояс: GMT + 7



Вы не можете начинать темы
Вы не можете отвечать на сообщения
Вы не можете редактировать свои сообщения
Вы не можете удалять свои сообщения
Вы не можете голосовать в опросах
Вы не можете прикреплять файлы к сообщениям
Вы можете скачивать файлы