В.О.Л.К. (Вот она любовь какая) (Светлана Землякова) [2017, Мозаика мгновений, DVB, AVC] театр им. Вл. Маяковского

Ответить на тему
Статистика раздачи [Обновить пиров]
Размер:  2.04 GB   |    Зарегистрирован:  8 месяцев 3 дня   |    Скачан:  0 раз

Полного источника не было: Никогда

 
   
 
 
 
Автор Сообщение

torrentc.info

Создавать темы 14-Окт-2017 20:48

[Цитировать]

В.О.Л.К. (Вот она любовь какая)
Название театра: театр им. Вл. Маяковского
Жанр: Мозаика мгновений
Год выхода: 2017
Продолжительность: 02:11:35 + 01:23:40
Режиссёр: Светлана Землякова
В ролях: Павел Пархоменко, Юрий Лободенко, Екатерина Агеева, Александр Мичков, Наталия Меньшова, Алексей Сергеев, Дмитрий Соколов, Виктория Печерникова, Алексей Золотовицкий, Валерия Куликова, Александра Велескевич, Алексей Золотовицкий, Александр Мичков и др.
Описание: «В. О. Л. К» – спектакль по еще не видевшему мир, неизданному роману современного писателя Василия Ивановича Аксенова. Спектакль о юности и взрослении молодых девушек и юношей, живущих в глубине просторной России – в селе Ялань.
Это спектакль-наблюдение. Для большей достоверности и документальности выпускной курс режиссерского факультета ГИТИСа специально ездил в Сибирь, в места, где происходили события романа, где жили, мечтали и любили герои этой истории.
Доп. информация:
Запись потока *.ts со спутника Intelsat-15 / Horizons 2, 85.2° в.д., ремукс в *.mkv программой VideoReDo.
Семпл: http://multi-up.com/1171639
Качество видео: DVB
Формат файла: MKV
Видео: Advanced Video Codec, 720(1044)x578 (16:9), 25,000 кадров/сек, 1 226 Кбит/сек
Аудио: MPEG Audio, 48,0 КГц, 160 Кбит/сек, 2 канала

MediaInfo

General
Unique ID : 170215633940435725513902925629844222224 (0x800E56B12B178D1E33B78B202EF9F110)
Complete name : D:\MPG\ВОЛК\В_О_Л_К_ (Вот Она Любовь Какая)_ Действие 1 (Театр).mkv
Format : Matroska
Format version : Version 2
File size : 1.30 GiB
Duration : 2 h 11 min
Overall bit rate : 1 414 kb/s
Writing application : Lavf52.64.2
Writing library : Lavf52.64.2
Video
ID : 1
Format : AVC
Format/Info : Advanced Video Codec
Format profile : Main@L3
Format settings : CABAC / 3 Ref Frames
Format settings, CABAC : Yes
Format settings, RefFrames : 3 frames
Codec ID : V_MPEG4/ISO/AVC
Duration : 2 h 11 min
Bit rate : 1 226 kb/s
Width : 720 pixels
Height : 576 pixels
Display aspect ratio : 16:9
Original display aspect rat : 16:9
Frame rate mode : Constant
Frame rate : 25.000 FPS
Standard : Component
Color space : YUV
Chroma subsampling : 4:2:0
Bit depth : 8 bits
Scan type : Interlaced
Scan type, store method : Separated fields
Scan order : Top Field First
Bits/(Pixel*Frame) : 0.118
Stream size : 1.13 GiB (87%)
Default : Yes
Forced : No
Color range : Limited
Color primaries : BT.601 PAL
Transfer characteristics : BT.470 System B, BT.470 System G
Matrix coefficients : BT.470 System B, BT.470 System G
Audio
ID : 2
Format : MPEG Audio
Format version : Version 1
Format profile : Layer 2
Codec ID : A_MPEG/L2
Codec ID/Hint : MP2
Duration : 2 h 11 min
Bit rate mode : Constant
Bit rate : 160 kb/s
Channel(s) : 2 channels
Sampling rate : 48.0 kHz
Compression mode : Lossy
Stream size : 151 MiB (11%)
Language : Russian
Default : Yes
Forced : No
General
Unique ID : 248183696958330004605301889471637928137 (0xBAB670FD7F9267925F9C134BCA3CB8C9)
Complete name : D:\MPG\ВОЛК\В_О_Л_К_ (Вот Она Любовь Какая)_ Действие 2 (Театр).mkv
Format : Matroska
Format version : Version 2
File size : 753 MiB
Duration : 1 h 23 min
Overall bit rate : 1 259 kb/s
Writing application : Lavf52.64.2
Writing library : Lavf52.64.2
Video
ID : 1
Format : AVC
Format/Info : Advanced Video Codec
Format profile : Main@L3
Format settings : CABAC / 3 Ref Frames
Format settings, CABAC : Yes
Format settings, RefFrames : 3 frames
Codec ID : V_MPEG4/ISO/AVC
Duration : 1 h 23 min
Bit rate : 1 074 kb/s
Width : 720 pixels
Height : 576 pixels
Display aspect ratio : 16:9
Original display aspect rat : 16:9
Frame rate mode : Constant
Frame rate : 25.000 FPS
Standard : Component
Color space : YUV
Chroma subsampling : 4:2:0
Bit depth : 8 bits
Scan type : Interlaced
Scan type, store method : Separated fields
Scan order : Top Field First
Bits/(Pixel*Frame) : 0.104
Stream size : 643 MiB (85%)
Default : Yes
Forced : No
Color range : Limited
Color primaries : BT.601 PAL
Transfer characteristics : BT.470 System B, BT.470 System G
Matrix coefficients : BT.470 System B, BT.470 System G
Audio
ID : 2
Format : MPEG Audio
Format version : Version 1
Format profile : Layer 2
Codec ID : A_MPEG/L2
Codec ID/Hint : MP2
Duration : 1 h 23 min
Bit rate mode : Constant
Bit rate : 160 kb/s
Channel(s) : 2 channels
Sampling rate : 48.0 kHz
Compression mode : Lossy
Stream size : 95.8 MiB (13%)
Language : Russian
Default : Yes
Forced : No

Скриншот с названием постановки



[torrentc.info]_t_5464725.torrent
Торрент: Зарегистрирован ·  [ 2017-10-14 20:48 ] ·  d4371ce3697138ab69e2a7835cd018f67b478113

11 KB

Статус: проверено
Скачан: 0 раз
Размер: 2.04 GB
Оценка: 
(Голосов: 0)
Сказали спасибо: 0  Спасибо
Похожие темы
[Профиль]    [ЛС]
Показать сообщения:    
Ответить на тему

Текущее время: Сегодня 10:50

Часовой пояс: GMT + 7



Вы не можете начинать темы
Вы не можете отвечать на сообщения
Вы не можете редактировать свои сообщения
Вы не можете удалять свои сообщения
Вы не можете голосовать в опросах
Вы не можете прикреплять файлы к сообщениям
Вы можете скачивать файлы