(Jazz-Pop) [WEB] Chiara Civello - Eclipse - 2017, FLAC (tracks), lossless

Ответить на тему
Статистика раздачи [Обновить пиров]
Размер:  299 MB   |    Зарегистрирован:  2 месяца 14 дней   |    Скачан:  0 раз

Полного источника не было: Никогда

 
   
 
 
 
Автор Сообщение

torrentc.info

Создавать темы 03-Окт-2017 19:44

[Цитировать]

Chiara Civello - Eclipse
Жанр: Jazz-Pop
Страна исполнителя (группы): Italy
Год издания: 2017
Издатель (лейбл): Sony Music Entertainment
Номер по каталогу:
Аудиокодек: FLAC
Тип рипа: tracks
Битрейт аудио: lossless
Продолжительность: 00:46:45
Источник: 7digital
ID3-теги: да
Наличие сканов в содержимом раздачи: да (только обложка)
Треклист:
01. Come vanno le cose (04:11)
02. Eclisse twist (03:19)
03. Cuore in tasca (04:25)
04. Qualcuno come te (06:35)
05. Sambarilove (03:08)
06. Parole parole (04:01)
07. Amore amore amore (03:07)
08. La giusta distanza (04:12)
09. Um dia (03:59)
10. New York City Boy (03:27)
11. To Be Wild (03:02)
12. Quello che conta (03:19)

Отчёт AUDIOCHECKER:

AUDIOCHECKER v2.0 beta (build 457) - by Dester - opdester@freemail.hu~~~~~~~~~~~~~~~~~~~~~~~~~~~~~~~~~~
Started at: суббота, 30. 09. 2017. - 18:08.2312 files found
01 -===- D:\0TORRENTS\Chiara Civello - Eclipse (2017, WEB, FLAC)\01 - Come vanno le cose.flac Extracted successfully Conclusion: this track is CDDA with probability 100% Tempfile successfully deleted.
02 -===- D:\0TORRENTS\Chiara Civello - Eclipse (2017, WEB, FLAC)\02 - Eclisse twist.flac Extracted successfully Conclusion: this track is CDDA with probability 100% Tempfile successfully deleted.
03 -===- D:\0TORRENTS\Chiara Civello - Eclipse (2017, WEB, FLAC)\03 - Cuore in tasca.flac Extracted successfully Conclusion: this track is CDDA with probability 99% Tempfile successfully deleted.
04 -===- D:\0TORRENTS\Chiara Civello - Eclipse (2017, WEB, FLAC)\04 - Qualcuno come te.flac Extracted successfully Conclusion: this track is CDDA with probability 99% Tempfile successfully deleted.
05 -===- D:\0TORRENTS\Chiara Civello - Eclipse (2017, WEB, FLAC)\05 - Sambarilove.flac Extracted successfully Conclusion: this track is CDDA with probability 100% Tempfile successfully deleted.
06 -===- D:\0TORRENTS\Chiara Civello - Eclipse (2017, WEB, FLAC)\06 - Parole parole.flac Extracted successfully Conclusion: this track is CDDA with probability 99% Tempfile successfully deleted.
07 -===- D:\0TORRENTS\Chiara Civello - Eclipse (2017, WEB, FLAC)\07 - Amore amore amore.flac Extracted successfully Conclusion: this track is CDDA with probability 100% Tempfile successfully deleted.
08 -===- D:\0TORRENTS\Chiara Civello - Eclipse (2017, WEB, FLAC)\08 - La giusta distanza.flac Extracted successfully Conclusion: this track is CDDA with probability 100% Tempfile successfully deleted.
09 -===- D:\0TORRENTS\Chiara Civello - Eclipse (2017, WEB, FLAC)\09 - Um dia.flac Extracted successfully Conclusion: this track is CDDA with probability 100% Tempfile successfully deleted.
10 -===- D:\0TORRENTS\Chiara Civello - Eclipse (2017, WEB, FLAC)\10 - New York City Boy.flac Extracted successfully Conclusion: this track is CDDA with probability 100% Tempfile successfully deleted.
11 -===- D:\0TORRENTS\Chiara Civello - Eclipse (2017, WEB, FLAC)\11 - To Be Wild.flac Extracted successfully Conclusion: this track is CDDA with probability 100% Tempfile successfully deleted.
12 -===- D:\0TORRENTS\Chiara Civello - Eclipse (2017, WEB, FLAC)\12 - Quello che conta.flac Extracted successfully Conclusion: this track is CDDA with probability 100% Tempfile successfully deleted.
Finished at: суббота, 30. 09. 2017. - 18:12.31 (operation time: 0:04.08)

Отчёт DRM:

foobar2000 1.3.2 / Замер динамического диапазона (DR) 1.1.1Дата отчёта: 2017-09-30 18:41:48
--------------------------------------------------------------------------------Анализ: Chiara Civello / Eclipse--------------------------------------------------------------------------------
DR Пики RMS Продолжительность трека--------------------------------------------------------------------------------DR6 -0.28 дБ -7.94 дБ 4:11 01-Come vanno le coseDR6 -0.28 дБ -7.31 дБ 3:19 02-Eclisse twistDR6 -0.28 дБ -8.28 дБ 4:25 03-Cuore in tascaDR5 -0.27 дБ -7.88 дБ 6:35 04-Qualcuno come teDR7 -0.28 дБ -8.13 дБ 3:08 05-SambariloveDR5 -0.28 дБ -7.43 дБ 4:01 06-Parole paroleDR9 -1.42 дБ -14.40 дБ 3:07 07-Amore amore amoreDR6 -0.28 дБ -7.55 дБ 4:12 08-La giusta distanzaDR5 -0.26 дБ -7.24 дБ 3:59 09-Um diaDR6 -0.28 дБ -9.20 дБ 3:27 10-New York City BoyDR6 -0.28 дБ -8.52 дБ 3:02 11-To Be WildDR10 -0.28 дБ -14.29 дБ 3:19 12-Quello che conta--------------------------------------------------------------------------------
Количество треков: 12Реальные значения DR: DR6
Частота: 44100 ГцКаналов: 2Разрядность: 16Битрейт: 729 кбит/сКодек: FLAC================================================================================
-mp3-

[torrentc.info]_t_5460174.torrent
Торрент: Зарегистрирован ·  [ 2017-10-03 19:42 ] ·  4ba317a1719259c88ec8c44d7c8ddfb3f0c278ca

13 KB

Статус: проверено
Скачан: 0 раз
Размер: 299 MB
Оценка: 
(Голосов: 0)
Сказали спасибо: 0  Спасибо
Похожие темы
[Профиль]    [ЛС]
Показать сообщения:    
Ответить на тему

Текущее время: Сегодня 13:55

Часовой пояс: GMT + 7



Вы не можете начинать темы
Вы не можете отвечать на сообщения
Вы не можете редактировать свои сообщения
Вы не можете удалять свои сообщения
Вы не можете голосовать в опросах
Вы не можете прикреплять файлы к сообщениям
Вы можете скачивать файлы