[iPhone] Драконий Жемчуг Зет: Фильм восьмой / Dragon Ball Z: Broly - The Legendary Super Saiyan (Ямаути Сигэясу / Yamauchi Shigeyasu) [1993, приключения, комедия, фэнтези, сёнэн, BDRip, 576x320]

Ответить на тему
Статистика раздачи [Обновить пиров]
Размер:  661 MB   |    Зарегистрирован:  1 год   |    Скачан:  0 раз

Полного источника не было: Никогда

 
   
 
 
 
Автор Сообщение

torrentc.info

Создавать темы 27-Сен-2017 22:54

[Цитировать]

Драконий Жемчуг Зет: Фильм восьмой-
Оригинальное название: ドラゴンボールZ 燃え尽きろ!! 熱戦・烈戦・超激戦
Английское название: Dragon Ball Z: Broly - The Legendary Super Saiyan-Год выхода:
1993
Страна: Япония
Жанр:приключения, комедия, фэнтези, сёнэн
Продолжительность: 70 минут-Перевод : Любительский Одноголосый субтитры
Субтитры: -Дата выхода: 06.03.1993-Режиссёр: Ямаути Сигэясу
Студия: -Описание: Воин Саядзин Парагас прибыл на Землю в поисках законного правителя Саядзинов, Веджиты. Убедив Веджиту в своей лояльности, он просит помощи в борьбе с Легендарным Супер Саядзином, который угрожает разрушить всю галактику. В это время Гоку, узнав об угрозе нападения, тоже мчится к месту действия. Цель Броли - стать самым могущественным Саядзином во вселенной и он не собирается от нее отступать! А значит снова полетят искры, когда Гоку и Веджита выступят против новой угрозы галактике.- || || || -Качество: BDRip
Формат файла: *.m4v
Видео кодек: H.264
Аудио кодек: ААС
Разрешение: 576х320
Другие параметры видео: 960 Кбит/сек, 16:9, 23,976 кадр/сек
Аудио [img]]http://i2.fastpic.ru/big/2010/0226/4e/8f6d58164509d16b6c8ba0880b56ff4e.png/img] : 160 Кбит/сек, 2 канала(ов), 48,0 КГц
Аудио : 160 Кбит/сек, 2 канала(ов), 48,0 КГц
Вшитая обложка: есть
Доп. теги (режиссёр, актёры и т.д.): есть
Телешоу/видеоклип : не требуется
Главы: нет
Серия/сезон:не требуется

MediaInfo

Format                                   : MPEG-4
Format profile                           : Base Media / Version 2
Codec ID                                 : mp42
File size                                : 661 MiB
Duration                                 : 1h 11mn
Overall bit rate mode                    : Variable
Overall bit rate                         : 1 285 Kbps
Movie name                               : Dragon Ball Z Movie 8
Genre                                    : Adventure
Recorded date                            : 1993
Encoded date                             : UTC 2012-06-05 15:12:55
Tagged date                              : UTC 2012-07-16 05:33:34
Writing application                      : HandBrake 0.9.6 2012022800
Cover                                    : Yes
iTunMOVI                                 :  /  /  /  /  directors /   /    /    name /    Ямаути Сигэясу /    /   /  /
desc                                     : Воин Саядзин Парагас прибыл на Землю в поисках законного правителя Саядзинов, Веджиты.
ldes                                     : Воин Саядзин Парагас прибыл на Землю в поисках законного правителя Саядзинов, Веджиты. Убедив Веджиту в своей лояльности, он просит помощи в борьбе с Легендарным Супер Саядзином, который угрожает разрушить всю галактику. В это время Гоку, узнав об угрозе нападения, тоже мчится к месту действия. Цель Броли - стать самым могущественным Саядзином во вселенной и он не собирается от нее отступать! А значит снова полетят искры, когда Гоку и Веджита выступят против новой угрозы галактике.
stik                                     : 9
Video
ID                                       : 1
Format                                   : AVC
Format/Info                              : Advanced Video Codec
Format profile                           : Baseline@L3.0
Format settings, CABAC                   : No
Format settings, ReFrames                : 4 frames
Codec ID                                 : avc1
Codec ID/Info                            : Advanced Video Coding
Duration                                 : 1h 11mn
Bit rate mode                            : Variable
Bit rate                                 : 960 Kbps
Width                                    : 576 pixels
Height                                   : 320 pixels
Display aspect ratio                     : 16:9
Frame rate mode                          : Variable
Frame rate                               : 23.976 fps
Minimum frame rate                       : 23.974 fps
Maximum frame rate                       : 23.981 fps
Color space                              : YUV
Chroma subsampling                       : 4:2:0
Bit depth                                : 8 bits
Scan type                                : Progressive
Bits/(Pixel*Frame)                       : 0.217
Stream size                              : 494 MiB (75%)
Writing library                          : x264 core 120
Encoding settings                        : cabac=0 / ref=4 / deblock=1:0:0 / analyse=0x1:0x131 / me=umh / subme=6 / psy=1 / psy_rd=0.00:0.00 / mixed_ref=1 / me_range=16 / chroma_me=1 / trellis=0 / 8x8dct=0 / cqm=0 / deadzone=21,11 / fast_pskip=0 / chroma_qp_offset=0 / threads=6 / sliced_threads=0 / nr=0 / decimate=1 / interlaced=0 / bluray_compat=0 / constrained_intra=0 / bframes=0 / weightp=0 / keyint=240 / keyint_min=24 / scenecut=40 / intra_refresh=0 / rc_lookahead=40 / rc=2pass / mbtree=1 / bitrate=960 / ratetol=1.0 / qcomp=0.60 / qpmin=3 / qpmax=69 / qpstep=4 / cplxblur=20.0 / qblur=0.5 / vbv_maxrate=1500 / vbv_bufsize=2000 / nal_hrd=none / ip_ratio=1.40 / aq=1:1.00
Encoded date                             : UTC 2012-06-05 15:12:55
Tagged date                              : UTC 2012-06-05 15:28:38
Color primaries                          : BT.709-5, BT.1361, IEC 61966-2-4, SMPTE RP177
Transfer characteristics                 : BT.709-5, BT.1361
Matrix coefficients                      : BT.709-5, BT.1361, IEC 61966-2-4 709, SMPTE RP177
Audio #1
ID                                       : 2
Format                                   : AAC
Format/Info                              : Advanced Audio Codec
Format profile                           : LC
Codec ID                                 : 40
Duration                                 : 1h 11mn
Bit rate mode                            : Variable
Bit rate                                 : 160 Kbps
Maximum bit rate                         : 214 Kbps
Channel(s)                               : 2 channels
Channel positions                        : Front: L R
Sampling rate                            : 48.0 KHz
Compression mode                         : Lossy
Stream size                              : 82.3 MiB (12%)
Language                                 : Japanese
Encoded date                             : UTC 2012-06-05 15:12:55
Tagged date                              : UTC 2012-06-05 15:28:37
Audio #2
ID                                       : 3
Format                                   : AAC
Format/Info                              : Advanced Audio Codec
Format profile                           : LC
Codec ID                                 : 40
Duration                                 : 1h 11mn
Bit rate mode                            : Variable
Bit rate                                 : 160 Kbps
Maximum bit rate                         : 352 Kbps
Channel(s)                               : 2 channels
Channel positions                        : Front: L R
Sampling rate                            : 48.0 KHz
Compression mode                         : Lossy
Stream size                              : 82.3 MiB (12%)
Language                                 : English
Encoded date                             : UTC 2012-06-05 15:12:55
Tagged date                              : UTC 2012-06-05 15:28:37
Text
ID                                       : 4
Format                                   : Timed text
Muxing mode                              : sbtl
Codec ID                                 : tx3g
Duration                                 : 1h 11mn
Bit rate mode                            : Variable
Bit rate                                 : 250 bps
Stream size                              : 131 KiB (0%)
Language                                 : English
Encoded date                             : UTC 2012-06-05 15:12:55
Tagged date                              : UTC 2012-06-05 15:28:37

Скриншоты

- Группы:


[torrentc.info]_t_4126918.torrent
Торрент: Зарегистрирован ·  [ 2017-09-27 22:54 ] ·  1b0ac4e19411b01e49610eb1af6bc87486c56db8

1 KB

Статус: проверено
Скачан: 0 раз
Размер: 661 MB
Оценка: 
(Голосов: 0)
Сказали спасибо: 0  Спасибо
Похожие темы
[Профиль]    [ЛС]
Показать сообщения:    
Ответить на тему

Текущее время: Сегодня 19:53

Часовой пояс: GMT + 7



Вы не можете начинать темы
Вы не можете отвечать на сообщения
Вы не можете редактировать свои сообщения
Вы не можете удалять свои сообщения
Вы не можете голосовать в опросах
Вы не можете прикреплять файлы к сообщениям
Вы можете скачивать файлы