Bernard Lavilliers - Baron Samedi - Musique Acoustic от 12.01.2014 - TV5MONDE (Филипп Сомме / Philippe Sommet) [2014, French Chanson, Variété française, Pop, Reggae, Live, DVB]

Ответить на тему
Статистика раздачи [Обновить пиров]
Размер:  787 MB   |    Зарегистрирован:  1 год 5 месяцев   |    Скачан:  0 раз

Полного источника не было: Никогда

 
   
 
 
 
Автор Сообщение

torrentc.info

Создавать темы 15-Фев-2017 22:31

[Цитировать]

Bernard Lavilliers - Baron Samedi
Musique Acoustic от 12.01.2014 - TV5MONDE- Страна: Франция
Жанр: French Chanson, Variété française, Pop, Reggae, Live
Продолжительность: 00:26:45
Год выхода: 2014 г.Режиссер: Филипп Сомме / Philippe Sommet
Описание: Музыкальная передача Musique Acoustic канала французского телевидения TV5MONDE представляет преимущественно французских же талантливых молодых исполнителей, чье живое выступление в студии без зрителей может состоять из одной или нескольких песен, иногда передача бывает полностью посвящена одному исполнителю, презентующему новый альбом. Musique Acoustic выходит в эфир раз в 1-2 недели. Ведущим передачи c 2006 года является ее создатель - популярный радио – и телеведущий - Sébastien Folin, получивший известность в 2005 году серией из 20 коротких программ для TF1 "Любовь в 20 лет".
Сегодня в студии французский певец, композитор и автор текстов Bernard Lavilliers, представит последний студийный альбом Baron Samedi (2013). Бернар Лавилье с юности занимался боксом, работал на заводе. Неоднократно сидел в тюрьме за мелкие кражи. В 19 лет совершил путешествие в Бразилию, которая станет одной из главных тем его творчества. Лавилье занимается культуризмом, эксплуатируя образ хулигана из пригорода, путешественника по экзотическим для европейца странам (Бразилия, Ямайка) и искателя приключений. В его песнях часто упоминаются наркотики и криминальные разборки. Музыкально творчество Лавилье эклектично: рок, блюз, регги, сальса. Тексты очень политизированы, но при этом глубоко поэтичны.
Треклист:
01. Vivre encore
02. Scorpion
03. Tête chargée
04. Jack
05. Stand in the Getho-[url=tracker.php?nm=Musique%20Acoustic%20TV5MONDE]Передачи Musique Acoustic[/url]-Источник: TV5MONDE.
Качество: DVB-S
Формат файла: MPEG-PS [url=viewtopic.php?p=58098458#58098458](См. при проблемах с просмотром видео)[/url]
Видео кодек: MPEG2
Аудио кодек: MP2
Видео: MPEG Video 2, 720x576@1024x576 (16:9), 25 fps, ~3835 kbps avg, ~0.370 bit/pixel
Аудио: 48 kHz, MPEG Audio 2, 2 ch, ~192.00 kbps avg

MediaInfo

Полное имя : H:\My Torrents\[apreder]TV5MONDE_Musique_Acoustic\[apreder]TV5MONDE_Musique_Aqoustic(12.01.2014)DVB.mpgФормат файла : MPEG-PSРазмер файла : 787 МбайтПродолжительность : 26 м.Режим общего битрейта : ПеременныйОбщий поток : 4109 Кбит/сек
ВидеоИдентификатор : 224 (0xE0)Формат файла : MPEG VideoВерсия формата : Version 2Профиль формата : Main@MainПараметр BVOP формата : ДаПараметр матрицы формата : ВыборочнаяПараметр GOP формата : M=3, N=24Продолжительность : 26 м.Вид битрейта : ПеременныйБитрейт : 3835 Кбит/секШирина : 720 пикселейВысота : 576 пикселейСоотношение сторон : 16:9Частота кадров : 25,000 кадров/секСтандарт вещания : PALЦветовое пространство : YUVСубдискретизация насыщенности : 4:2:0Битовая глубина : 8 битМетод сжатия : С потерямиБит/(Пиксели*Кадры) : 0.370Временной код первого кадра : 00:00:02:20Оригинал временного кода : Group of pictures headerРазмер потока : 734 Мбайт (93%)
АудиоИдентификатор : 192 (0xC0)Формат файла : MPEG AudioВерсия формата : Version 1Профиль формата : Layer 2Продолжительность : 26 м.Вид битрейта : ПостоянныйБитрейт : 192 Кбит/секКаналы : 2 каналаЧастота : 48,0 КГцМетод сжатия : С потерямиЗадержка видео : -96 мс.Размер потока : 36,8 Мбайт (5%)

Скриншоты

Скриншоты - резерв

-1'138/1'119[-4]√


[torrentc.info]_torrent-4640111.torrent
Торрент: Зарегистрирован ·  [ 2017-02-15 22:12 ] ·  ffc06c6065a687acf6711f9510c20e486e448330

16 KB

Статус: проверено
Скачан: 0 раз
Размер: 787 MB
Оценка: 
(Голосов: 0)
Сказали спасибо: 0  Спасибо
Похожие темы
[Профиль]    [ЛС]
Показать сообщения:    
Ответить на тему

Текущее время: Сегодня 22:44

Часовой пояс: GMT + 7



Вы не можете начинать темы
Вы не можете отвечать на сообщения
Вы не можете редактировать свои сообщения
Вы не можете удалять свои сообщения
Вы не можете голосовать в опросах
Вы не можете прикреплять файлы к сообщениям
Вы можете скачивать файлы