Thomas Fersen - Thomas Fersen & The Ginger Accident - Musique Acoustic от 19.01.2014 - TV5MONDE (Филипп Сомме / Philippe Sommet) [2014, French Chanson, Live, DVB]

Ответить на тему
Статистика раздачи [Обновить пиров]
Размер:  788 MB   |    Зарегистрирован:  1 год 7 месяцев   |    Скачан:  0 раз

Полного источника не было: Никогда

 
   
 
 
 
Автор Сообщение

torrentc.info

Создавать темы 15-Фев-2017 22:31

[Цитировать]

Thomas Fersen - Thomas Fersen & The Ginger Accident
Musique Acoustic от 19.01.2014 - TV5MONDE- Страна: Франция
Жанр: French Chanson, Live
Продолжительность: 00:26:46
Год выхода: 2014 г.Режиссер: Филипп Сомме / Philippe Sommet
Описание: Музыкальная передача Musique Acoustic канала французского телевидения TV5MONDE представляет преимущественно французских же талантливых молодых исполнителей, чье живое выступление в студии без зрителей может состоять из одной или нескольких песен, иногда передача бывает полностью посвящена одному исполнителю, презентующему новый альбом. Musique Acoustic выходит в эфир раз в 1-2 недели. Ведущим передачи c 2006 года является ее создатель - популярный радио – и телеведущий - Sébastien Folin, получивший известность в 2005 году серией из 20 коротких программ для TF1 "Любовь в 20 лет".
Сегодня в студии французский певец, композитор и автор текстов Thomas Fersen, представит последний студийный альбом Thomas Fersen & The Ginger Accident (2013). Тома Ферсен родом из Парижа, начал играть на гитаре джаз еще в подростковом возрасте, а затем обратился к панк-музыке. После нескольких лет жизни в Южной Америке он вернулся во Францию и играл на фортепиано в барах. Альбом "Бал птиц" (1993) стал судьбоносным для Тома – его многогранные, нежные, романтичные и ироничные песни снискали любовь публики.
Треклист:
01. Viens mon Michel
02. Donne-moi un petit baiser
03. La boxe à l'anglo-saxonne
04. Les pingouins des îles
05. Mais oui mesdames
06. Svalutation-[url=tracker.php?nm=Musique%20Acoustic%20TV5MONDE]Передачи Musique Acoustic[/url]-Источник: TV5MONDE.
Качество: DVB-S
Формат файла: MPEG-PS [url=viewtopic.php?p=58098458#58098458](См. при проблемах с просмотром видео)[/url]
Видео кодек: MPEG2
Аудио кодек: MP2
Видео: MPEG Video 2, 720x576@1024x576 (16:9), 25 fps, ~3836 kbps avg, ~0.370 bit/pixel
Аудио: 48 kHz, MPEG Audio 2, 2 ch, ~192.00 kbps avg

MediaInfo

Полное имя : H:\My Torrents\[apreder]TV5MONDE_Musique_Acoustic\[apreder]TV5MONDE_Musique_Aqoustic(19.01.2014)DVB.mpgФормат файла : MPEG-PSРазмер файла : 788 МбайтПродолжительность : 26 м.Режим общего битрейта : ПеременныйОбщий поток : 4110 Кбит/сек
ВидеоИдентификатор : 224 (0xE0)Формат файла : MPEG VideoВерсия формата : Version 2Профиль формата : Main@MainПараметр BVOP формата : ДаПараметр матрицы формата : ВыборочнаяПараметр GOP формата : M=3, N=24Продолжительность : 26 м.Вид битрейта : ПеременныйБитрейт : 3836 Кбит/секШирина : 720 пикселейВысота : 576 пикселейСоотношение сторон : 16:9Частота кадров : 25,000 кадров/секСтандарт вещания : PALЦветовое пространство : YUVСубдискретизация насыщенности : 4:2:0Битовая глубина : 8 битМетод сжатия : С потерямиБит/(Пиксели*Кадры) : 0.370Временной код первого кадра : 00:00:00:00Оригинал временного кода : Group of pictures headerРазмер потока : 735 Мбайт (93%)
АудиоИдентификатор : 192 (0xC0)Формат файла : MPEG AudioВерсия формата : Version 1Профиль формата : Layer 2Продолжительность : 26 м.Вид битрейта : ПостоянныйБитрейт : 192 Кбит/секКаналы : 2 каналаЧастота : 48,0 КГцМетод сжатия : С потерямиРазмер потока : 36,8 Мбайт (5%)

Скриншоты

Скриншоты - резерв

-1'144/1'125[-4]√


[torrentc.info]_torrent-4646317.torrent
Торрент: Зарегистрирован ·  [ 2017-02-15 22:12 ] ·  0e24d1427bd122bc422cca4a38847126c997644b

16 KB

Статус: проверено
Скачан: 0 раз
Размер: 788 MB
Оценка: 
(Голосов: 0)
Сказали спасибо: 0  Спасибо
Похожие темы
[Профиль]    [ЛС]
Показать сообщения:    
Ответить на тему

Текущее время: Сегодня 02:41

Часовой пояс: GMT + 7



Вы не можете начинать темы
Вы не можете отвечать на сообщения
Вы не можете редактировать свои сообщения
Вы не можете удалять свои сообщения
Вы не можете голосовать в опросах
Вы не можете прикреплять файлы к сообщениям
Вы можете скачивать файлы