Жизнь в забвении / Living in Oblivion (Том Дичилло / Tom DiCillo) [1995, США, комедия, HDRip] AVO (Гаврилов)

Ответить на тему
Статистика раздачи [Обновить пиров]
Размер:  1.45 GB   |    Зарегистрирован:  2 месяца 10 дней   |    Скачан:  0 раз

Полного источника не было: Никогда

 
   
 
 
 
Автор Сообщение

torrentc.info

Создавать темы 13-Сен-2017 00:42

[Цитировать]

Жизнь в забвении / Living in Oblivion
Страна: США
Жанр: комедия
Год выхода: 1995
Продолжительность: 01:30:05
Перевод: Авторский (одноголосый закадровый) | Гаврилов
Субтитры: нет
Оригинальная аудиодорожка: нет-Режиссер:
Том Дичилло / Tom DiCillo-В ролях:
Стив Бушеми, Кэтрин Кинер, Дермот Малруни, Даниэлла фон Зернек, Джеймс ЛиГрос, Рика Мартенс, Питер Динкледж, Кевин Корриган, Хилари Гилфорд, Роберт Вигтмэн-Описание:
Нелёгкое дело — съёмки фильма! Актёры забывают слова, сбивается фокус, ломается аппаратура, у оператора несварение желудка — со всем этим приходится бороться режиссёру фильма Нику. Тогда как мужскую половину съёмочной группы интересует только один вопрос: когда, наконец, будут снимать «обнажёнку»?-Качество видео: HDRip
Формат файла: AVI
Видео: 704x384 (1.83:1), 23.976 fps, XviD build 73 ~2109 kbps avg, 0.33 bit/pixel
Аудио: 48 kHz, AC3 Dolby Digital, 2/0 (L,R) ch, ~192 kbps-Скачать сэмпл-

MediaInfo

Format                      : AVI
Format/Info                 : Audio Video Interleave
File size                   : 1.45 GiB
Duration                    : 1 h 30 min
Overall bit rate            : 2 311 kb/s
Writing application         : VirtualDubMod 1.5.10.3 | www.virtualdub-fr.org || (build 2550/release)
Writing library             : VirtualDubMod build 2550/release
Video
ID                          : 0
Format                      : MPEG-4 Visual
Format profile              : Advanced Simple@L5
Format settings, BVOP       : 1
Format settings, QPel       : No
Format settings, GMC        : No warppoints
Format settings, Matrix     : Custom
Codec ID                    : XVID
Codec ID/Hint               : XviD
Duration                    : 1 h 30 min
Bit rate                    : 2 109 kb/s
Width                       : 704 pixels
Height                      : 384 pixels
Display aspect ratio        : 1.85:1
Frame rate                  : 23.976 (24000/1001) FPS
Color space                 : YUV
Chroma subsampling          : 4:2:0
Bit depth                   : 8 bits
Scan type                   : Progressive
Compression mode            : Lossy
Bits/(Pixel*Frame)          : 0.325
Stream size                 : 1.33 GiB (91%)
Writing library             : XviD 73
Audio
ID                          : 1
Format                      : AC-3
Format/Info                 : Audio Coding 3
Format settings, Endianness : Big
Codec ID                    : 2000
Duration                    : 1 h 30 min
Bit rate mode               : Constant
Bit rate                    : 192 kb/s
Channel(s)                  : 2 channels
Channel positions           : Front: L R
Sampling rate               : 48.0 kHz
Frame rate                  : 31.250 FPS (1536 spf)
Bit depth                   : 16 bits
Compression mode            : Lossy
Stream size                 : 124 MiB (8%)
Alignment                   : Split accross interleaves
Interleave, duration        : 42  ms (1.00 video frame)
Interleave, preload duratio : 500  ms
Service kind                : Complete Main

Скриншоты


[torrentc.info]_t_5451392.torrent
Торрент: Зарегистрирован ·  [ 2017-09-13 00:42 ] ·  d425e8cf5123b704cb0f1758bcd84bb307026e64

15 KB

Статус: проверено
Скачан: 0 раз
Размер: 1.45 GB
Оценка: 
(Голосов: 0)
Сказали спасибо: 0  Спасибо
Похожие темы
[Профиль]    [ЛС]
Показать сообщения:    
Ответить на тему

Текущее время: Сегодня 23:35

Часовой пояс: GMT + 7



Вы не можете начинать темы
Вы не можете отвечать на сообщения
Вы не можете редактировать свои сообщения
Вы не можете удалять свои сообщения
Вы не можете голосовать в опросах
Вы не можете прикреплять файлы к сообщениям
Вы можете скачивать файлы