Vincent Delerm – Les Amants paralleles - Musique Acoustic от 02.03.2014 - TV5MONDE (Филипп Сомме / Philippe Sommet) [2014, Chanson française, Pop, Live, DVB] Original (Fre) + Sub (rus)

Ответить на тему
Статистика раздачи [Обновить пиров]
Размер:  653 MB   |    Зарегистрирован:  1 год 5 месяцев   |    Скачан:  0 раз

Полного источника не было: Никогда

 
   
 
 
 
Автор Сообщение

torrentc.info

Создавать темы 15-Фев-2017 22:31

[Цитировать]

Vincent Delerm – Les Amants parallèles
Musique Acoustic от 02.03.2014 - TV5MONDE- Страна: Франция
Жанр: Chanson française, Pop, Live
Продолжительность: 00:26:51
Год выхода: 2014 г.
Перевод: Субтитры (перевод М. Кузиной, Éclair Group)
Cубтитры: русскиеРежиссер: Филипп Сомме / Philippe Sommet
Описание: Музыкальная передача Musique Acoustic канала французского телевидения TV5MONDE представляет преимущественно французских же талантливых молодых исполнителей, чье живое выступление в студии без зрителей может состоять из одной или нескольких песен, иногда передача бывает полностью посвящена одному исполнителю, презентующему новый альбом. Musique Acoustic выходит в эфир раз в 1-2 недели. Ведущим передачи c 2006 года является ее создатель - популярный радио – и телеведущий - Sébastien Folin, получивший известность в 2005 году серией из 20 коротких программ для TF1 "Любовь в 20 лет".
Сегодня в студии автор-исполнитель Vincent Delerm после 5-летнего перерыва представит свой новый альбом Les Amants parallèles (2013). Когда во Франции произносят словосочетание "новая французская песня" одним из первых называют имя Венсана Делерма. Он один из ярких представителей поколения тридцатилетних авторов и исполнителей, которые появились на музыкальной сцене Франции в последнее десятилетие. Критика увидела в них возвращение, или возрождение, французской авторской песни на новом витке истории. Реакции на этот "ренессанс" часто диаметрально противоположные – от восторга и обожания до раздражения и высокомерной снисходительности.
Треклист:
01. Les amants parallèles
02. Grand plongeoir
03. Et la fois où tu as
04. Ils avaient fait les valises dans la nuit
05. Embrasse-moi
06. Fanny Ardant et moi
07. La vipère du Gabon-[url=tracker.php?nm=Musique%20Acoustic%20TV5MONDE]Передачи Musique Acoustic[/url]-Дополнительная информация: перевод интервью вшитыми русскими субтитрами.
Источник: TV5MONDE.
Качество: DVB-S
Формат файла: MPEG-PS [url=viewtopic.php?p=58098458#58098458](См. при проблемах с просмотром видео)[/url]
Видео кодек: MPEG2
Аудио кодек: MP2
Видео: MPEG Video 2, 720x576@1024x576 (16:9), 25 fps, ~3134 kbps avg, ~0.302 bit/pixel
Аудио: 48 kHz, MPEG Audio 2, 2 ch, ~192.00 kbps avg
Формат файла субтитров: hardsub (неотключаемые)

MediaInfo

Полное имя : H:\My Torrents\[apreder]TV5MONDE_Musique_Acoustic\[apreder]TV5MONDE_Musique_Aqoustic(02.03.2014)DVB.mpgФормат файла : MPEG-PSРазмер файла : 653 МбайтПродолжительность : 26 м.Режим общего битрейта : ПеременныйОбщий поток : 3393 Кбит/сек
ВидеоИдентификатор : 224 (0xE0)Формат файла : MPEG VideoВерсия формата : Version 2Профиль формата : Main@MainПараметр BVOP формата : ДаПараметр матрицы формата : ВыборочнаяПараметр GOP формата : M=3, N=24Продолжительность : 26 м.Вид битрейта : ПеременныйБитрейт : 3134 Кбит/секШирина : 720 пикселейВысота : 576 пикселейСоотношение сторон : 16:9Частота кадров : 25,000 кадров/секСтандарт вещания : PALЦветовое пространство : YUVСубдискретизация насыщенности : 4:2:0Битовая глубина : 8 битМетод сжатия : С потерямиБит/(Пиксели*Кадры) : 0.302Временной код первого кадра : 00:00:00:00Оригинал временного кода : Group of pictures headerРазмер потока : 603 Мбайт (92%)
АудиоИдентификатор : 192 (0xC0)Формат файла : MPEG AudioВерсия формата : Version 1Профиль формата : Layer 2Продолжительность : 26 м.Вид битрейта : ПостоянныйБитрейт : 192 Кбит/секКаналы : 2 каналаЧастота : 48,0 КГцМетод сжатия : С потерямиРазмер потока : 36,9 Мбайт (6%)

Скриншоты

Скриншоты - резерв

-1'207/1'188[-4]√


[torrentc.info]_torrent-4682660.torrent
Торрент: Зарегистрирован ·  [ 2017-02-15 22:12 ] ·  09be5172fbdba71983ca4687aa602d907f80430c

13 KB

Статус: проверено
Скачан: 0 раз
Размер: 653 MB
Оценка: 
(Голосов: 0)
Сказали спасибо: 0  Спасибо
Похожие темы
[Профиль]    [ЛС]
Показать сообщения:    
Ответить на тему

Текущее время: Сегодня 22:19

Часовой пояс: GMT + 7



Вы не можете начинать темы
Вы не можете отвечать на сообщения
Вы не можете редактировать свои сообщения
Вы не можете удалять свои сообщения
Вы не можете голосовать в опросах
Вы не можете прикреплять файлы к сообщениям
Вы можете скачивать файлы