Da Silva – Villa Rosa - Musique Acoustic от 23.03.2014 - TV5MONDE (Филипп Сомме / Philippe Sommet) [2014, Chanson française, Live, DVB] Original (Fre) + Sub (rus)

Ответить на тему
Статистика раздачи [Обновить пиров]
Размер:  880 MB   |    Зарегистрирован:  1 год 7 месяцев   |    Скачан:  0 раз

Полного источника не было: Никогда

 
   
 
 
 
Автор Сообщение

torrentc.info

Создавать темы 15-Фев-2017 22:31

[Цитировать]

Da Silva – Villa Rosa
Musique Acoustic от 23.03.2014 - TV5MONDE- Страна: Франция
Жанр: Chanson française, Live
Продолжительность: 00:26:48
Год выхода: 2014 г.
Перевод: Субтитры (перевод И. Рыбкиной, Éclair Group)
Cубтитры: русскиеРежиссер: Филипп Сомме / Philippe Sommet
Описание: Музыкальная передача Musique Acoustic канала французского телевидения TV5MONDE представляет преимущественно французских же талантливых молодых исполнителей, чье живое выступление в студии без зрителей может состоять из одной или нескольких песен, иногда передача бывает полностью посвящена одному исполнителю, презентующему новый альбом. Musique Acoustic выходит в эфир раз в 1-2 недели. Ведущим передачи c 2006 года является ее создатель - популярный радио – и телеведущий - Sébastien Folin, получивший известность в 2005 году серией из 20 коротких программ для TF1 "Любовь в 20 лет".
Сегодня в студии французский певец португальского происхождения Da Silva представит свой пятый альбом Villa Rosa (2013).
Треклист:
01. Villa Rosa
02. Le Puits
03. Un Jour Peut-être
04. Le Coureur De Fond
05. 20 Ans-[url=tracker.php?nm=Musique%20Acoustic%20TV5MONDE]Передачи Musique Acoustic[/url]-Дополнительная информация: перевод интервью вшитыми русскими субтитрами.
Источник: TV5MONDE.
Качество: DVB-S
Формат файла: MPEG-PS [url=viewtopic.php?p=58098458#58098458](См. при проблемах с просмотром видео)[/url]
Видео кодек: MPEG2
Аудио кодек: MP2
Видео: MPEG Video 2, 704x576@1024x576 (16:9), 25 fps, ~4297 kbps avg, ~0.424 bit/pixel
Аудио: 48 kHz, MPEG Audio 2, 2 ch, ~192.00 kbps avg
Формат файла субтитров: hardsub (неотключаемые)

MediaInfo

Полное имя : H:\My Torrents\[apreder]TV5MONDE_Musique_Acoustic\[apreder]TV5MONDE_Musique_Aqoustic(23.03.2014)DVB.mpgФормат файла : MPEG-PSРазмер файла : 880 МбайтПродолжительность : 26 м.Режим общего битрейта : ПеременныйОбщий поток : 4580 Кбит/сек
ВидеоИдентификатор : 224 (0xE0)Формат файла : MPEG VideoВерсия формата : Version 2Профиль формата : Main@MainПараметр BVOP формата : ДаПараметр матрицы формата : ВыборочнаяПараметр GOP формата : VariableПродолжительность : 26 м.Вид битрейта : ПеременныйБитрейт : 4297 Кбит/секШирина : 704 пикселяВысота : 576 пикселейСоотношение сторон : 16:9Частота кадров : 25,000 кадров/секСтандарт вещания : PALЦветовое пространство : YUVСубдискретизация насыщенности : 4:2:0Битовая глубина : 8 битМетод сжатия : С потерямиБит/(Пиксели*Кадры) : 0.424Временной код первого кадра : 00:00:00:00Оригинал временного кода : Group of pictures headerРазмер потока : 826 Мбайт (94%)
АудиоИдентификатор : 192 (0xC0)Формат файла : MPEG AudioВерсия формата : Version 1Профиль формата : Layer 2Продолжительность : 26 м.Вид битрейта : ПостоянныйБитрейт : 192 Кбит/секКаналы : 2 каналаЧастота : 48,0 КГцМетод сжатия : С потерямиРазмер потока : 36,9 Мбайт (4%)

Скриншоты

Скриншоты - резерв

-1'229/1'210[-4]√


[torrentc.info]_torrent-4699918.torrent
Торрент: Зарегистрирован ·  [ 2017-02-15 22:12 ] ·  5960c3dca18e4775caf8e366a0d92700acd15ba2

18 KB

Статус: проверено
Скачан: 0 раз
Размер: 880 MB
Оценка: 
(Голосов: 0)
Сказали спасибо: 0  Спасибо
Похожие темы
[Профиль]    [ЛС]
Показать сообщения:    
Ответить на тему

Текущее время: Сегодня 17:51

Часовой пояс: GMT + 7



Вы не можете начинать темы
Вы не можете отвечать на сообщения
Вы не можете редактировать свои сообщения
Вы не можете удалять свои сообщения
Вы не можете голосовать в опросах
Вы не можете прикреплять файлы к сообщениям
Вы можете скачивать файлы