Rosemary Standley, Sylvain Griotto - A Queen of Heart au Theatre de la Bastille a Paris (Роберто Мария Грасси / Roberto Maria Grassi) [2014, Chanson, Cabaret, Live, HDRip]

Ответить на тему
Статистика раздачи [Обновить пиров]
Размер:  1.47 GB   |    Зарегистрирован:  1 год 9 месяцев   |    Скачан:  0 раз

Полного источника не было: Никогда

 
   
 
 
 
Автор Сообщение

torrentc.info

Создавать темы 15-Фев-2017 22:31

[Цитировать]

A Queen of Heart
au Théâtre de la Bastille à Paris- Страна: Франция
Жанр: Chanson, Cabaret, Live
Продолжительность: 01:17:54
Год выхода: 2014 г.
Режиссер: Roberto Maria Grassi
Постановка: Juliette Deschamps
Исполнители: Rosemary Standley (chant), Sylvain Griotto (piano)Описание: Музыкальный моноспектакль в стиле меланхоличного кабаре расскажет о любви песнями Курта Вайля, Коула Портера, Леонарда Бернстайна, Брайана Ферри. Это музыкальная дань гламуру, элегантности и декадентской меланхоличности. Это дань таким певицам прошлого, как Марлен Дитрих, Мэрилин Монро, Билли Холидей, Нине Симон, Рите Хейворт, Пегги Ли, Нэнси Синатре.
Франко-американская певица Rosemary Standley - участница авангардного музыкального коллектива Moriarty, получившего свое название в честь персонажа романа Джека Керуака "В дороге" Дина Мориарти.
Треклист:
01. La Reine de Coeur
02. The Man I Love
03. Put The Blame on Mame
04. El Negro Zumbon
05. Oops
06. I Don't Want to Get Thin
07. Come on a My House
08. Because
09. Wild Is The Wind
10. Hotel
11. Porque te vas
12. I'd Rather Go Blind
13. Je ne t'aime pas
14. Pirate Jenny
15. When I Ride
16. La nuit je mens
17. Sag mir wo die blumen sind
18. Red Hot Mama
19. Lover Come Back To Me
20. Johnny Guitar
21. Ain't Got No, I Got Life
22. When I Am Laid
23. India Song
24. Red Hot Mama
Качество: HDRip
Формат файла: MKV
Видео кодек: H.264
Аудио кодек: AC3
Видео: AVC (H.264), 1152x640 (16:9), 25 fps, ~2500 kbps avg, 0.136 bit/pixel
Аудио: AC3, 2 ch, 48 kHz, ~192.00 kbps avg

MediaInfo

Общее
Уникальный идентификатор : 221691524189803239755725966302189395699 (0xA6C83C073C2FCBD2973AB8B337331EF3)
Полное имя : E:\My Torrents 2\[apreder]A_Queen_of_Heart_au_Theatre_de_la_Bastille(2014)HDRip.mkv
Формат файла : Matroska
Версия формата : Version 2
Размер файла : 1,47 Гбайт
Продолжительность : 1 ч. 17 м.
Общий поток : 2694 Кбит/сек
Дата кодирования : UTC 2014-11-30 13:18:54
Программа кодирования : mkvmerge v7.3.0 ('Nouages') 64bit built on Oct 22 2014 18:53:34
Библиотека кодирования : libebml v1.3.0 + libmatroska v1.4.1
Видео
Идентификатор : 1
Формат файла : AVC
Формат файла/Информация : Advanced Video Codec
Профиль формата : High@L4.1
Параметр CABAC формата : Да
Параметр ReFrames формата : 11 кадров
Идентификатор кодека : V_MPEG4/ISO/AVC
Продолжительность : 1 ч. 17 м.
Битрейт : 2500 Кбит/сек
Ширина : 1152 пикселя
Высота : 640 пикселей
Соотношение сторон : 16:9
Режим частоты кадров : Постоянный
Частота кадров : 25,000 кадров/сек
Цветовое пространство : YUV
Субдискретизация насыщенности : 4:2:0
Битовая глубина : 8 бит
Тип развёртки : Прогрессивная
Бит/(Пиксели*Кадры) : 0.136
Размер потока : 1,33 Гбайт (91%)
Библиотека кодирования : x264 core 142 r2431 ac76440
Настройки программы : cabac=1 / ref=11 / deblock=1:-1:-1 / analyse=0x3:0x133 / me=umh / subme=10 / psy=1 / psy_rd=1.00:0.15 / mixed_ref=1 / me_range=24 / chroma_me=1 / trellis=2 / 8x8dct=1 / cqm=0 / deadzone=21,11 / fast_pskip=1 / chroma_qp_offset=-3 / threads=6 / lookahead_threads=1 / sliced_threads=0 / nr=0 / decimate=1 / interlaced=0 / bluray_compat=0 / constrained_intra=0 / bframes=8 / b_pyramid=2 / b_adapt=2 / b_bias=0 / direct=3 / weightb=1 / open_gop=0 / weightp=2 / keyint=250 / keyint_min=25 / scenecut=40 / intra_refresh=0 / rc_lookahead=60 / rc=2pass / mbtree=1 / bitrate=2500 / ratetol=1.0 / qcomp=0.60 / qpmin=0 / qpmax=69 / qpstep=4 / cplxblur=20.0 / qblur=0.5 / vbv_maxrate=62500 / vbv_bufsize=78125 / nal_hrd=none / filler=0 / ip_ratio=1.40 / aq=1:1.00
Default : Да
Forced : Нет
Аудио
Идентификатор : 2
Формат файла : AC-3
Формат файла/Информация : Audio Coding 3
Расширение режима : CM (complete main)
Параметр Endianness формата : Big
Идентификатор кодека : A_AC3
Продолжительность : 1 ч. 17 м.
Вид битрейта : Постоянный
Битрейт : 192 Кбит/сек
Каналы : 2 канала
Расположение каналов : Front: L R
Частота : 48,0 КГц
Битовая глубина : 16 бит
Метод сжатия : С потерями
Размер потока : 107 Мбайт (7%)
Язык : English
Default : Да
Forced : Нет

Скриншоты

Резервные скриншоты

-[1'953]


[torrentc.info]_torrent-4880976.torrent
Торрент: Зарегистрирован ·  [ 2017-02-15 22:12 ] ·  c874f1ca8b62ac9d0f4869378edb8395fdd79418

15 KB

Статус: проверено
Скачан: 0 раз
Размер: 1.47 GB
Оценка: 
(Голосов: 0)
Сказали спасибо: 0  Спасибо
Похожие темы
[Профиль]    [ЛС]
Показать сообщения:    
Ответить на тему

Текущее время: Сегодня 22:20

Часовой пояс: GMT + 7



Вы не можете начинать темы
Вы не можете отвечать на сообщения
Вы не можете редактировать свои сообщения
Вы не можете удалять свои сообщения
Вы не можете голосовать в опросах
Вы не можете прикреплять файлы к сообщениям
Вы можете скачивать файлы