Vianney – Idees blanches - Musique Acoustic от 28.01.2015 - TV5MONDE (Филипп Сомме / Philippe Sommet) [2015, French Chanson, Live, DVB]

Ответить на тему
Статистика раздачи [Обновить пиров]
Размер:  606 MB   |    Зарегистрирован:  1 год 10 месяцев   |    Скачан:  0 раз

Полного источника не было: Никогда

 
   
 
 
 
Автор Сообщение

torrentc.info

Создавать темы 15-Фев-2017 22:31

[Цитировать]

Vianney – Idées blanches
Musique Acoustic от 28.01.2015 - TV5MONDE- Страна: Франция
Жанр: French Chanson, Live
Продолжительность: 00:26:41
Год выхода: 2014 г.
Перевод: Субтитры (перевод М.Кузиной, Éclair Group)
Cубтитры: русские, английские, французские, немецкие, нидерландские, румынские
Режиссер: Филипп Сомме / Philippe SommetОписание: Музыкальная передача Musique Acoustic канала французского телевидения TV5MONDE представляет преимущественно французских же талантливых молодых исполнителей, чье живое выступление в студии без зрителей может состоять из одной или нескольких песен, иногда передача бывает полностью посвящена одному исполнителю, презентующему новый альбом. Musique Acoustic выходит в эфир раз в 1-2 недели. Ведущим передачи c 2006 года является ее создатель - популярный радио – и телеведущий - Sébastien Folin, получивший известность в 2005 году серией из 20 коротких программ для TF1 "Любовь в 20 лет".
Сегодня в студии молодой французский автор-исполнитель Vianney представят свой дебютный альбом Idées blanches (2014).
Треклист:
01. Labello
02. Je te déteste
03. Pas là
04. On est bien comme ça
05. Mon étoile-[url=tracker.php?nm=Musique%20Acoustic%20TV5MONDE]Передачи Musique Acoustic[/url]-Источник: Hot Bird (13.0°E) TV5MONDE Europe DVB-S
Качество: DVB
Формат файла: MKV
Видео кодек: MPEG2
Аудио кодек: MP2
Видео: MPEG Video 2, 720x576@1024x576 (16:9), 25 fps, ~2918 kbps avg, ~0.281 bit/pixel
Аудио: 48 kHz, MPEG Audio 2, 2 ch, ~192.00 kbps avg
Формат файла субтитров: prerendered (IDX+SUB)

MediaInfo

ОбщееУникальный идентификатор : 187579136754263952288919439874395379046 (0x8D1E6D79EDC03419B8C8FBE5AC2A9566)Полное имя : H:\My Torrents\[apreder]TV5MONDE_Musique_Acoustic\[apreder]TV5MONDE_Musique_Aqoustic_Vianney_Idees_blanches(28.01.2015)DVB.mkvФормат файла : MatroskaВерсия формата : Version 2Размер файла : 606 МбайтПродолжительность : 26 м.Режим общего битрейта : ПеременныйОбщий поток : 3173 Кбит/секДата кодирования : UTC 2015-08-19 14:42:52Программа кодирования : mkvmerge v8.3.0 ('Over the Horizon') 64bitБиблиотека кодирования : libebml v1.3.1 + libmatroska v1.4.2Attachements : cover.jpg / cover_small.jpgTITLE : Vianney – Idées blanchesDATE_RELEASED : 2015-01-28SUMMARY : Acoustic TV5MONDELAW_RATING : 16+GENRE : French Chanson, LiveACTOR : VianneyDIRECTOR : Philippe SommetKEYWORDS : Torrentc.org
ВидеоИдентификатор : 1Формат файла : MPEG VideoВерсия формата : Version 2Профиль формата : Main@MainПараметр BVOP формата : ДаПараметр матрицы формата : ВыборочнаяПараметр GOP формата : VariableFormat_Settings_PictureStructure : FrameИдентификатор кодека : V_MPEG2Идентификатор кодека/Информация : MPEG 1 or 2 VideoПродолжительность : 26 м.Вид битрейта : ПеременныйБитрейт : 2918 Кбит/секШирина : 720 пикселейВысота : 576 пикселейСоотношение сторон : 16:9Режим частоты кадров : ПостоянныйЧастота кадров : 25,000 кадров/секСтандарт вещания : PALЦветовое пространство : YUVСубдискретизация насыщенности : 4:2:0Битовая глубина : 8 битТип развёртки : ЧересстрочнаяПорядок развёртки : Верхнее поле первоеМетод сжатия : С потерямиБит/(Пиксели*Кадры) : 0.281Временной код первого кадра : 00:00:00:00Оригинал временного кода : Group of pictures headerРазмер потока : 557 Мбайт (92%)Default : ДаForced : Нет
АудиоИдентификатор : 2Формат файла : MPEG AudioВерсия формата : Version 1Профиль формата : Layer 2Режим : Joint stereoРасширение режима : Intensity Stereo + MS StereoИдентификатор кодека : A_MPEG/L2Идентификатор кодека/Подсказка : MP2Продолжительность : 26 м.Вид битрейта : ПостоянныйБитрейт : 192 Кбит/секКаналы : 2 каналаЧастота : 48,0 КГцМетод сжатия : С потерямиРазмер потока : 36,7 Мбайт (6%)Язык : FrenchDefault : ДаForced : Нет
Текст #1Идентификатор : 3Формат файла : VobSubИдентификатор кодека : S_VOBSUBИдентификатор кодека/Информация : Picture based subtitle format used on DVDsЯзык : RussianDefault : ДаForced : Нет
Текст #2Идентификатор : 4Формат файла : VobSubИдентификатор кодека : S_VOBSUBИдентификатор кодека/Информация : Picture based subtitle format used on DVDsЯзык : EnglishDefault : НетForced : Нет
Текст #3Идентификатор : 5Формат файла : VobSubИдентификатор кодека : S_VOBSUBИдентификатор кодека/Информация : Picture based subtitle format used on DVDsЯзык : FrenchDefault : НетForced : Нет
Текст #4Идентификатор : 6Формат файла : VobSubИдентификатор кодека : S_VOBSUBИдентификатор кодека/Информация : Picture based subtitle format used on DVDsЯзык : GermanDefault : НетForced : Нет
Текст #5Идентификатор : 7Формат файла : VobSubИдентификатор кодека : S_VOBSUBИдентификатор кодека/Информация : Picture based subtitle format used on DVDsЯзык : DutchDefault : НетForced : Нет
Текст #6Идентификатор : 8Формат файла : VobSubИдентификатор кодека : S_VOBSUBИдентификатор кодека/Информация : Picture based subtitle format used on DVDsЯзык : RomanianDefault : НетForced : Нет

Скриншоты

Резервные скриншоты

-[2'088]


[torrentc.info]_torrent-4928547.torrent
Торрент: Зарегистрирован ·  [ 2017-02-15 22:12 ] ·  73c2a13e7ec316941a07ab9174a31f80ba20e11d

12 KB

Статус: проверено
Скачан: 0 раз
Размер: 606 MB
Оценка: 
(Голосов: 0)
Сказали спасибо: 0  Спасибо
Похожие темы
[Профиль]    [ЛС]
Показать сообщения:    
Ответить на тему

Текущее время: Сегодня 20:52

Часовой пояс: GMT + 7



Вы не можете начинать темы
Вы не можете отвечать на сообщения
Вы не можете редактировать свои сообщения
Вы не можете удалять свои сообщения
Вы не можете голосовать в опросах
Вы не можете прикреплять файлы к сообщениям
Вы можете скачивать файлы