Летающий дедушка / Der fliegende Grossvater / Der fliegende Großvater (Лотар Барке / Lothar Barke) [1964, ГДР, мультфильм, DVDRip]

Ответить на тему
Статистика раздачи [Обновить пиров]
Размер:  174 MB   |    Зарегистрирован:  10 дней   |    Скачан:  0 раз

Полного источника не было: Никогда

 
   
 
 
 
Автор Сообщение

torrentc.info

Создавать темы 10-Сен-2017 19:42

[Цитировать]

Летающий дедушка / Der fliegende Grossvater / Der fliegende Großvater- Страна: ГДР
Жанр: мультфильм
Год выхода: 1964
Продолжительность: 00:09:33-Перевод: не требуется
Субтитры: нет-Режиссер: Лотар Барке / Lothar Barke- | : [img]https://static.t-ru.org/ranks/rg_mult.gif[/img]-Описание: По мотивам книги Х. Белинга. Маленький Райнер мечтает о большом воздушном змее и дедушка делает его для внука. Но что же из этого выйдет? Для них начинается захватывающее воздушное приключение.-Семпл: http://sendfile.su/1360913-Тип релиза: DVDRip
Формат файла: AVI
Видео: 640x480 (1.33:1), 25 fps, XviD build 67 ~2349 kbps avg, 0.31 bit/pixel
Аудио: 48 kHz, AC3 Dolby Digital, 2/0 (L,R) ch, ~192 kbps

MediaInfo

GeneralComplete name : Летающий дедушка 1964 (ГДР, DEFA).aviFormat : AVIFormat/Info : Audio Video InterleaveFile size : 174 MiBDuration : 9 min 33 sOverall bit rate : 2 552 kb/sWriting application : VirtualDubMod 1.5.10.2 (build 2542/release)Writing library : VirtualDubMod build 2542/release
VideoID : 0Format : MPEG-4 VisualFormat profile : Advanced Simple@L5Format settings, BVOP : 2Format settings, QPel : NoFormat settings, GMC : No warppointsFormat settings, Matrix : CustomCodec ID : XVIDCodec ID/Hint : XviDDuration : 9 min 33 sBit rate : 2 350 kb/sWidth : 640 pixelsHeight : 480 pixelsDisplay aspect ratio : 4:3Frame rate : 25.000 FPSColor space : YUVChroma subsampling : 4:2:0Bit depth : 8 bitsScan type : ProgressiveCompression mode : LossyBits/(Pixel*Frame) : 0.306Stream size : 161 MiB (92%)Writing library : XviD 67
AudioID : 1Format : AC-3Format/Info : Audio Coding 3Format settings, Endianness : BigCodec ID : 2000Duration : 9 min 33 sBit rate mode : ConstantBit rate : 192 kb/sChannel(s) : 2 channelsChannel positions : Front: L RSampling rate : 48.0 kHzFrame rate : 31.250 FPS (1536 SPF)Bit depth : 16 bitsCompression mode : LossyStream size : 13.1 MiB (8%)Alignment : Split accross interleavesInterleave, duration : 40 ms (1.00 video frame)Interleave, preload duration : 500 msService kind : Complete Main
Источник: Torrentc с предыдущей раздачей">

Скриншоты Источник: Torrentc с предыдущей раздачей


http://Torrentc/forum/viewtopic.php?t=3262241

[torrentc.info]_t_5451276.torrent
Торрент: Зарегистрирован ·  [ 2017-09-10 19:42 ] ·  d3aa5115609951cdd2a571dfec9a11c6394259d3

14 KB

Статус: проверено
Скачан: 0 раз
Размер: 174 MB
Оценка: 
(Голосов: 0)
Сказали спасибо: 0  Спасибо
Похожие темы
[Профиль]    [ЛС]
Показать сообщения:    
Ответить на тему

Текущее время: Сегодня 15:46

Часовой пояс: GMT + 7



Вы не можете начинать темы
Вы не можете отвечать на сообщения
Вы не можете редактировать свои сообщения
Вы не можете удалять свои сообщения
Вы не можете голосовать в опросах
Вы не можете прикреплять файлы к сообщениям
Вы можете скачивать файлы