Помни имя свое (Сергей Колосов) [1974, драма, DVDRip]

Ответить на тему
Статистика раздачи [Обновить пиров]
Размер:  1.46 GB   |    Зарегистрирован:  10 дней   |    Скачан:  0 раз
Сидеров:  1  [  0 KB/s  ]   Личеров:  2  [  0 KB/s  ]   Подробная статистика скачивающих
 
   
 
 
 
Автор Сообщение

torrentc.info

Создавать темы 10-Сен-2017 18:36

[Цитировать]

Помни имя свое

Жанр: драма
Год выхода: 1974
Продолжительность: 01:36:59

Режиссёр: Cергей Колосов
В ролях: Людмила Касаткина, Людмила Иванова, Лилия Давидович, Слава Астахов, Тадеуш Боровский, Рышарда Ханин, Владимир Ивашов, Леон Немчик, Любовь Соколова
Описание: Во время второй мировой войны русская женщина Зинаида, попав в Освенцим, была разлучена с маленьким сыном. Но ребенок не погиб и не пропал. Его спасла и вырастила польская женщина...

Качество видео: DVDRip
Формат файла: AVI
Видео: 624x480 (1.30:1), 25 fps, XviD build 73 ~1946 kbps avg, 0.26 bit/pixel
Аудио: 48 kHz, AC3 Dolby Digital, 2/0 (L,R) ch, ~192 kbps

Источник: Torrentc

http://Torrentc/forum/viewtopic.php?t=1251474

MediaInfo

General
Complete name : H:\Помни.имя.свое.1974.DVDRip_[1.46]_[teko].avi
Format : AVI
Format/Info : Audio Video Interleave
File size : 1.46 GiB
Duration : 1h 36mn
Overall bit rate : 2 148 Kbps
Writing application : VirtualDubMod 1.5.10.3 | www.virtualdub-fr.org || (build 2550/release)
Writing library : VirtualDubMod build 2550/release
Video
ID : 0
Format : MPEG-4 Visual
Format profile : Advanced Simple@L5
Format settings, BVOP : 2
Format settings, QPel : No
Format settings, GMC : No warppoints
Format settings, Matrix : Custom
Codec ID : XVID
Codec ID/Hint : XviD
Duration : 1h 36mn
Bit rate : 1 947 Kbps
Width : 624 pixels
Height : 480 pixels
Display aspect ratio : 4:3
Frame rate : 25.000 fps
Color space : YUV
Chroma subsampling : 4:2:0
Bit depth : 8 bits
Scan type : Progressive
Compression mode : Lossy
Bits/(Pixel*Frame) : 0.260
Stream size : 1.32 GiB (91%)
Writing library : XviD 73
Audio
ID : 1
Format : AC-3
Format/Info : Audio Coding 3
Mode extension : CM (complete main)
Format settings, Endianness : Big
Codec ID : 2000
Duration : 1h 36mn
Bit rate mode : Constant
Bit rate : 192 Kbps
Channel(s) : 2 channels
Channel positions : Front: L R
Sampling rate : 48.0 KHz
Frame rate : 31.250 fps (1536 spf)
Compression mode : Lossy
Stream size : 133 MiB (9%)
Alignment : Split accross interleaves
Interleave, duration : 40 ms (1.00 video frame)
Interleave, preload duratio : 500 ms

Скриншоты

:--

[torrentc.info]_t_5451082.torrent
Торрент: Зарегистрирован ·  [ 2017-09-10 18:36 ] ·  2d520e13973e4f229cbd4c143a8f597caaef09ee

15 KB

Статус: проверено
Скачан: 0 раз
Размер: 1.46 GB
Оценка: 
(Голосов: 0)
Сказали спасибо: 0  Спасибо
Похожие темы
[Профиль]    [ЛС]
Показать сообщения:    
Ответить на тему

Текущее время: Сегодня 15:45

Часовой пояс: GMT + 7



Вы не можете начинать темы
Вы не можете отвечать на сообщения
Вы не можете редактировать свои сообщения
Вы не можете удалять свои сообщения
Вы не можете голосовать в опросах
Вы не можете прикреплять файлы к сообщениям
Вы можете скачивать файлы