US Open 2017 / 1/4 финала / Роджер Федерер (Швейцария) - Хуан Мартин Дель Потро (Аргентина) / [3] Roger FEDERER SUI - [24] Juan Martin DEL POTRO ARG / Eurosport HD [06.09.2017, Теннис, HDTV/1080i, TS/H.264, RU/EN]

Ответить на тему
Статистика раздачи [Обновить пиров]
Размер:  10.77 GB   |    Зарегистрирован:  2 месяца 12 дней   |    Скачан:  0 раз

Полного источника не было: Никогда

 
   
 
 
 
Автор Сообщение

torrentc.info

Создавать темы 10-Сен-2017 15:18

[Цитировать]

US Open 2017. 1/4 финала
[3] Roger FEDERER SUI - [24] Juan Martin DEL POTRO ARG

Дата эфира: 06.09.2017
Вид спорта: Теннис
Комментарий: Профессиональный
Язык комментариев: Русский (Ташев, Чакветадзе) / Английский-Описание: US Open 2017 / 1/4 финала / Роджер Федерер (Швейцария) - Хуан Мартин Дель Потро (Аргентина).-Автор рипа: Злобный Санчез
Качество: HDTV
Формат файла: TS
Видео кодек: H.264
Аудио кодек: MP2
Видео: MPEG4 Video (H264) 1920x1080 (16:9) 25fps 8306kbps
Аудио 1: MPEG Audio 48000Hz stereo 192kbps (Русский)
Аудио 2: MPEG Audio 48000Hz stereo 192kbps (Английский)
Media Info">

Скриншоты Media Info


GeneralID : 1 (0x1)Complete name : W:\раздачи\US Open 2017. Четвертьфинал. [3] Roger Federer - [24] Juan Martin Del Potro. Torrentc.tsFormat : MPEG-TSFile size : 10.8 GiBDuration : 2 h 48 minOverall bit rate mode : VariableOverall bit rate : 9 145 kb/s
VideoID : 301 (0x12D)Menu ID : 26001 (0x6591)Format : AVCFormat/Info : Advanced Video CodecFormat profile : High@L4Format settings, CABAC : YesFormat settings, RefFrames : 4 framesFormat settings, GOP : M=4, N=28Codec ID : 27Duration : 2 h 48 minBit rate : 8 306 kb/sWidth : 1 920 pixelsHeight : 1 080 pixelsDisplay aspect ratio : 16:9Frame rate : 25.000 FPSStandard : ComponentColor space : YUVChroma subsampling : 4:2:0Bit depth : 8 bitsScan type : InterlacedScan type, store method : Separated fieldsScan order : Top Field FirstBits/(Pixel*Frame) : 0.160Stream size : 9.78 GiB (91%)Color range : LimitedColor primaries : BT.709Transfer characteristics : BT.709Matrix coefficients : BT.709
Audio #1ID : 401 (0x191)Menu ID : 26001 (0x6591)Format : MPEG AudioFormat version : Version 1Format profile : Layer 2Codec ID : 3Duration : 2 h 48 minBit rate mode : ConstantBit rate : 192 kb/sChannel(s) : 2 channelsSampling rate : 48.0 kHzCompression mode : LossyDelay relative to video : -120 msStream size : 232 MiB (2%)Language : Russian
Audio #2ID : 402 (0x192)Menu ID : 26001 (0x6591)Format : MPEG AudioFormat version : Version 1Format profile : Layer 2Codec ID : 3Duration : 2 h 48 minBit rate mode : ConstantBit rate : 192 kb/sChannel(s) : 2 channelsSampling rate : 48.0 kHzCompression mode : LossyDelay relative to video : -120 msStream size : 232 MiB (2%)Language : English

Продолжительность

02:48:37

Счёт

[3] Roger FEDERER SUI - [24] Juan Martin DEL POTRO ARG
5-7, 6-3, 6-7, 4-6

[torrentc.info]_t_5449945.torrent
Торрент: Зарегистрирован ·  [ 2017-09-10 15:18 ] ·  a1d2d3edbded3863e2f9c18cb66c65e338f70755

54 KB

Статус: проверено
Скачан: 0 раз
Размер: 10.77 GB
Оценка: 
(Голосов: 0)
Сказали спасибо: 0  Спасибо
Похожие темы
[Профиль]    [ЛС]
Показать сообщения:    
Ответить на тему

Текущее время: Сегодня 01:27

Часовой пояс: GMT + 7



Вы не можете начинать темы
Вы не можете отвечать на сообщения
Вы не можете редактировать свои сообщения
Вы не можете удалять свои сообщения
Вы не можете голосовать в опросах
Вы не можете прикреплять файлы к сообщениям
Вы можете скачивать файлы