Офицер флота (М. Микаэлян) [1970, телеспектакль, SATRip]

Ответить на тему
Статистика раздачи [Обновить пиров]
Размер:  1.46 GB   |    Зарегистрирован:  1 год 3 месяца   |    Скачан:  0 раз

Полного источника не было: Никогда

 
   
 
 
 
Автор Сообщение

torrentc.info

Создавать темы 06-Сен-2017 23:38

[Цитировать]

Офицер флота
Телеспектакль
Год выхода: 1970
Жанр: драма
Продолжительность: 01:58:23
Режиссер: Маргарита Микаэлян
В ролях:
Горбунов - Вадим Бероев
Художник - Георгий Менглет
Катя - Татьяна Васильева (Ицыкович)
Юлия Антоновна - Татьяна Пельтцер
Белобров - Анатолий Папанов
Тамара - Вера Васильева
Кондратьев - Александр Пороховщиков
Соловцев - Борис Новиков
Мариша - Наталья Защипина
Селянин - Роман Ткачук
Ждановский - Юлиан Козловский
Туровцев - Борис Кумаритов
Николай Эрастович - Виктор Рухманов
Граница - Владимир Радченко
Соколов - Владимир Кулик
Сторожиха - Надежда Каратаева
Шофер - Юрий Соковнин
Доктор – Вадим Завьялов
Каюров – Алексей Овечкин
Туляков – Даниил Каданов
Описание: Пьеса Александра Крона посвящена подводникам Краснознаменного Балтийского флота.
Действие происходит в Ленинграде во время Великой Отечественной войны.
Спектакль рассказывает о героизме и беспредельной преданности Родине военных моряков.
В самом названии скрыт важный смысл. "Офицер флота" - именно Офицер, как высокая категория подлинных защитников Отечества.
:
Семпл: http://sendfile.su/1358379
Качество: SATRip
Формат файла: AVI
Видео кодек: XviD
Аудио кодек: MP3
Видео: 704x464 (1.52:1), 25 fps, XviD MPEG-4 ~1627 kbps avg, 0.20 bit/pixel
Аудио: 48 kHz, MPEG Layer 3, 2 ch, ~128.00 kbps avg

MediaInfo

General
Complete name : Oficer.flota.1970.SATRip.fenixclub.avi
Format : AVI
Format/Info : Audio Video Interleave
File size : 1.46 GiB
Duration : 1h 58mn
Overall bit rate : 1 765 Kbps
Writing application : VirtualDubModRus 1.5.10.2 (build 2542/release)
Writing library : VirtualDub build 32842/release
Video
ID : 0
Format : MPEG-4 Visual
Format profile : Advanced Simple@L5
Format settings, BVOP : 2
Format settings, QPel : No
Format settings, GMC : No warppoints
Format settings, Matrix : Default (MPEG)
Codec ID : XVID
Codec ID/Hint : XviD
Duration : 1h 58mn
Bit rate : 1 628 Kbps
Width : 704 pixels
Height : 464 pixels
Display aspect ratio : 3:2
Frame rate : 25.000 fps
Color space : YUV
Chroma subsampling : 4:2:0
Bit depth : 8 bits
Scan type : Progressive
Compression mode : Lossy
Bits/(Pixel*Frame) : 0.199
Stream size : 1.35 GiB (92%)
Writing library : XviD 73
Audio
ID : 1
Format : MPEG Audio
Format version : Version 1
Format profile : Layer 3
Mode : Joint stereo
Mode extension : MS Stereo
Codec ID : 55
Codec ID/Hint : MP3
Duration : 1h 58mn
Bit rate mode : Constant
Bit rate : 128 Kbps
Channel(s) : 2 channels
Sampling rate : 48.0 KHz
Compression mode : Lossy
Stream size : 108 MiB (7%)
Alignment : Split accross interleaves
Interleave, duration : 40 ms (1.00 video frame)
Interleave, preload duratio : 500 ms
Writing library : LAME3.98.2

Скриншоты


Торрент перезалит 30 августа 2017 года


[torrentc.info]_t_1890440.torrent
Торрент: Зарегистрирован ·  [ 2017-09-06 23:36 ] ·  9be29e1197ed2392646538837022edcd1b16fe9f

15 KB

Статус: проверено
Скачан: 0 раз
Размер: 1.46 GB
Оценка: 
(Голосов: 0)
Сказали спасибо: 0  Спасибо
Похожие темы
[Профиль]    [ЛС]
Показать сообщения:    
Ответить на тему

Текущее время: Сегодня 22:26

Часовой пояс: GMT + 7



Вы не можете начинать темы
Вы не можете отвечать на сообщения
Вы не можете редактировать свои сообщения
Вы не можете удалять свои сообщения
Вы не можете голосовать в опросах
Вы не можете прикреплять файлы к сообщениям
Вы можете скачивать файлы