Аркадий Укупник - Пора взрослеть (05.05.2016) [2016, Pop, SATRip]

Reply to topic
DL-List and Torrent activity [Update пиров]
Size:  1.21 GB   |    Registered:  3 years   |    Completed:  0 times

Seeder not seen: Never

 
   
 
 
 
Author Message

Мых

Post 15-Feb-2017 22:25

[Quote]

Аркадий Укупник - Пора взрослеть (05.05.2016) -Страна: Россия
Жанр: Pop
Продолжительность: 01:29:29
Год выхода: 2016 г.-Описание: Теплым майским вечером на празднике композитора и поп-певца Аркадия Укупника споют легендарные отечественные музыканты и признанные коллективы: Филипп Киркоров, Александр Рыбак, Вера Брежнева, Ирина Аллегрова, Александр Маршал, Иосиф Кобзон и хор академического ансамбля ВВ МВД РФ, Лайма Вайкуле, Кристина Орбакайте, Полина Гагарина, Маша Распутина, Олег Газманов, Доминик Джокер, Алсу, Михаил Шуфутинский, Надежда Бабкина и ансамбль «Русская песня», Ирина Дубцова и Лариса Долина.-Треклист:
01 Александр Рыбак - Я не верю в чудеса
02 Филипп Киркоров - Там где меня нет
03 Филипп Киркоров - Милая, милая, милая - Нежный мой ангел земной
04 Вера Брежнева - Но только не говори мне, что любишь меня
05 Доминик Джокер - Любовь здесь больше не живет
06 Алсу и Аркадий Укупник - Рябиновые бусы
07 Александр Маршал - Пыль дорог
08 Иосиф Кобзон - Наши футболки в крови, но победа за нами!
09 Лайма Вайкуле - Таверна
10 вокальная группа - Туман
11 Кристина Орбакайте - Я нарисую небо
12 Полина Гагарина и Итальянский певец Алессандро Сафина - Где ты, Где я
13 Аркадий Укупник - Я на тебе никогда не женюсь
14 Аркадий Укупник и Игорь Бутман - Фрак, бабочка, лаковые туфли, взмах палочки и джаз
15 Маша Распутина - Хожу от дома к дому
16 Балет Аллы Духовой «TODES»
17 Аркадий Укупник и Олег Газманов - Петруха (Товарищ Сухов)
18 Ирина Аллегрова - Ой, не надо
19 Михаил Шуфутинский - Гуляй Душа
20 Надежда Бабкина
21 Аркадий Укупник, Юлия Началова и Сергей Жилин - Я бас,ты соло
22 Ирина Дубцова - Сильная женщина
23 Сопрано Турецкого - На Дерибасовской снимается кино, Рита Рита Маргарита, Фролен Штирлиц
24 Лариса Долина - Стена
25 Аркадий Укупник - Пора взрослеть
26 Аркадий Укупник и все учасники - Птицы летят на север-Источник: скачано из сети-Качество: SATRip
Формат файла: AVI
Видео кодек: XviD
Аудио кодек: MPEG Audio
Видео: XviD, 1 799 Кбит/с, 720x400, 16:9, 25 кадр/с
Аудио: MPEG Audio, 2 ch, 128 Кбит/с

MI

General
Complete name : D:\Torrentc.org\Аркадий Укупник - Пора взрослеть (05.05.2016) SATRip.avi
Format : AVI
Format/Info : Audio Video Interleave
File size : 1.21 GiB
Duration : 1h 29mn
Overall bit rate : 1 937 Kbps
Writing application : VirtualDubMod 1.5.10.3 | www.virtualdub-fr.org || (build 2550/release)
Writing library : VirtualDubMod build 2550/release
Video
ID : 0
Format : MPEG-4 Visual
Format profile : Advanced Simple@L5
Format settings, BVOP : 2
Format settings, QPel : No
Format settings, GMC : No warppoints
Format settings, Matrix : Default (H.263)
Codec ID : XVID
Codec ID/Hint : XviD
Duration : 1h 29mn
Bit rate : 1 799 Kbps
Width : 720 pixels
Height : 400 pixels
Display aspect ratio : 16:9
Frame rate : 25.000 fps
Color space : YUV
Chroma subsampling : 4:2:0
Bit depth : 8 bits
Scan type : Progressive
Compression mode : Lossy
Bits/(Pixel*Frame) : 0.250
Stream size : 1.12 GiB (93%)
Writing library : XviD 1.2.1 (UTC 2008-12-04)
Audio
ID : 1
Format : MPEG Audio
Format version : Version 1
Format profile : Layer 3
Mode : Joint stereo
Mode extension : MS Stereo
Codec ID : 55
Codec ID/Hint : MP3
Duration : 1h 29mn
Bit rate mode : Constant
Bit rate : 128 Kbps
Channel(s) : 2 channels
Sampling rate : 48.0 KHz
Compression mode : Lossy
Stream size : 81.9 MiB (7%)
Alignment : Aligned on interleaves
Interleave, duration : 40 ms (1.00 video frame)
Interleave, preload duratio : 504 ms
Writing library : LAME3.99r
Encoding settings : -m j -V 4 -q 9 -lowpass 17 -b 128
-В связи с невозможностью длительного хранения на жестком диске, просьба к скачавшим не уходить с раздачи. После появления сидов я прекращу раздачу.-


[geo-torrent.biz]_torrent-5221300.torrent
Torrent: Registered ·  [ 2017-02-15 22:12 ] ·  b3c64166e8b8192fb35986e1542b6cd245dd04de

13 KB

Status: checked
Completed: 0 times
Size: 1.21 GB
Rating: 
(Votes: 0)
Say thanks: 0  Thanks
Похожие темы
[Profile]    [PM]
Display posts from previous:    
Reply to topic

The time now is: Today 19:00

All times are GMT + 7 Hours



You cannot post new topics in this forum
You cannot reply to topics in this forum
You cannot edit your posts in this forum
You cannot delete your posts in this forum
You cannot vote in polls in this forum
You cannot attach files in this forum
You can download files in this forum