(Vocal Jazz) [CD] Dianne Reeves - Palo Alto Sessions 1981-1985 - 1996, FLAC (image+.cue), lossless

Ответить на тему
Статистика раздачи [Обновить пиров]
Размер:  412 MB   |    Зарегистрирован:  3 месяца 19 дней   |    Скачан:  0 раз

Полного источника не было: 3 месяца 14 дней

 
   
 
 
 
Автор Сообщение

torrentc.info

Создавать темы 29-Авг-2017 19:23

[Цитировать]

Dianne Reeves - Palo Alto Sessions 1981-1985 Жанр: Vocal Jazz
Носитель: CD
Год издания: 1996
Издатель (лейбл): Blue Note Records
Номер по каталогу: CDP 7243 8 36545 2 9
Аудиокодек: FLAC (*.flac)
Тип рипа: image+.cue
Битрейт аудио: lossless
Продолжительность: 67:01
Rip by RunawayTrane
Наличие сканов в содержимом раздачи: да
Треклист:
01. Ancient Source (4:26)
02. My Funny Valentine (6:31)
03. Better Days (5:28)
04. Mi Vida (4:02)
05. Hesitations (4:14)
06. Welcome To My Love (6:00)
07. Perfect Love (4:25)
08. Lullaby (7:17)
09. Passageway (4:42)
10. Siren Serenade (3:22)
11. Sitting In Limbo (6:34)
12. Be My Husband (4:03)
13. Separate Vacations (5:58)
 

Лог создания рипа

Exact Audio Copy V1.0 beta 3 from 29. August 2011
EAC extraction logfile from 1. June 2012, 14:07
Dianne Reeves / Palo Alto Sessions 1981-1985
Used drive : Memorex 52MAXX 3252AJ1 Adapter: 1 ID: 0
Read mode : SecureUtilize accurate stream : YesDefeat audio cache : YesMake use of C2 pointers : No
Read offset correction : 6Overread into Lead-In and Lead-Out : NoFill up missing offset samples with silence : YesDelete leading and trailing silent blocks : NoNull samples used in CRC calculations : YesUsed interface : Native Win32 interface for Win NT & 2000
Used output format : User Defined EncoderSelected bitrate : 1024 kBit/sQuality : HighAdd ID3 tag : NoCommand line compressor : C:\Program Files (x86)\Exact Audio Copy\wavpack.exeAdditional command line options : -w "Artist=%artist%" -w "Title=%title%" -w "Album=%albumtitle%" -w "Year=%year%" -w "Track=%tracknr%" -w "Genre=%genre%" -h %source% %dest%
TOC of the extracted CD
Track | Start | Length | Start sector | End sector --------------------------------------------------------- 1 | 0:00.00 | 4:26.17 | 0 | 19966 2 | 4:26.17 | 6:31.33 | 19967 | 49324 3 | 10:57.50 | 5:27.47 | 49325 | 73896 4 | 16:25.22 | 4:01.63 | 73897 | 92034 5 | 20:27.10 | 4:14.37 | 92035 | 111121 6 | 24:41.47 | 6:00.00 | 111122 | 138121 7 | 30:41.47 | 4:24.43 | 138122 | 157964 8 | 35:06.15 | 7:17.07 | 157965 | 190746 9 | 42:23.22 | 4:41.38 | 190747 | 211859 10 | 47:04.60 | 3:21.45 | 211860 | 226979 11 | 50:26.30 | 6:34.25 | 226980 | 256554 12 | 57:00.55 | 4:03.07 | 256555 | 274786 13 | 61:03.62 | 5:57.43 | 274787 | 301604
Range status and errors
Selected range
Filename C:\Users\M@ce\Music\Archives\Rips\Dianne Reeves - Palo Alto Sessions 1981-1985.wav
Peak level 100.0 % Extraction speed 6.4 X Range quality 100.0 % Test CRC FBB492CA Copy CRC FBB492CA Copy OK
No errors occurred
AccurateRip summary
Track 1 accurately ripped (confidence 10) [7928244B] (AR v1)Track 2 accurately ripped (confidence 10) [706D6204] (AR v1)Track 3 accurately ripped (confidence 9) [BC3B77A5] (AR v1)Track 4 accurately ripped (confidence 10) [7451382A] (AR v1)Track 5 accurately ripped (confidence 10) [E4B3BD99] (AR v1)Track 6 accurately ripped (confidence 10) [5FE4B99A] (AR v1)Track 7 accurately ripped (confidence 10) [C7E848B4] (AR v1)Track 8 accurately ripped (confidence 9) [F8418BE3] (AR v1)Track 9 accurately ripped (confidence 9) [B35600EB] (AR v1)Track 10 accurately ripped (confidence 10) [C3625B5E] (AR v1)Track 11 accurately ripped (confidence 10) [581EFCD2] (AR v1)Track 12 accurately ripped (confidence 10) [2F3F60B5] (AR v1)Track 13 accurately ripped (confidence 10) [F2F40B3B] (AR v1)
All tracks accurately ripped
End of status report
---- CUETools DB Plugin V2.1.4
[CTDB TOCID: 63i3ogoriCylyGdlmS2n2kAjkFQ-] foundSubmit result: 63i3ogoriCylyGdlmS2n2kAjkFQ- has been confirmedTrack | CTDB Status 1 | (1/1) Accurately ripped 2 | (1/1) Accurately ripped 3 | (1/1) Accurately ripped 4 | (1/1) Accurately ripped 5 | (1/1) Accurately ripped 6 | (1/1) Accurately ripped 7 | (1/1) Accurately ripped 8 | (1/1) Accurately ripped 9 | (1/1) Accurately ripped 10 | (1/1) Accurately ripped 11 | (1/1) Accurately ripped 12 | (1/1) Accurately ripped 13 | (1/1) Accurately ripped
==== Log checksum EA3A50E7D9ECFD2A97B702C910330589BFA9963BC68B15262D40E1D2ACA5BA8A ====

Содержание индексной карты (.CUE)

REM GENRE JazzREM DATE 1996REM DISCID C50FB50DREM COMMENT "ExactAudioCopy v1.0b3"PERFORMER "Dianne Reeves"TITLE "Palo Alto Sessions 1981-1985"FILE "Dianne Reeves - Palo Alto Sessions 1981-1985.flac" WAVE TRACK 01 AUDIO TITLE "Ancient Source" PERFORMER "Dianne Reeves" INDEX 01 00:00:00 TRACK 02 AUDIO TITLE "My Funny Valentine" PERFORMER "Dianne Reeves" INDEX 00 04:25:10 INDEX 01 04:26:17 TRACK 03 AUDIO TITLE "Better Days" PERFORMER "Dianne Reeves" INDEX 00 10:56:55 INDEX 01 10:57:50 TRACK 04 AUDIO TITLE "Mi Vida" PERFORMER "Dianne Reeves" INDEX 00 16:24:57 INDEX 01 16:25:22 TRACK 05 AUDIO TITLE "Hesitations" PERFORMER "Dianne Reeves" INDEX 00 20:25:50 INDEX 01 20:27:10 TRACK 06 AUDIO TITLE "Welcome To My Love" PERFORMER "Dianne Reeves" INDEX 00 24:40:57 INDEX 01 24:41:47 TRACK 07 AUDIO TITLE "Perfect Love" PERFORMER "Dianne Reeves" INDEX 00 30:40:15 INDEX 01 30:41:47 TRACK 08 AUDIO TITLE "Lullaby" PERFORMER "Dianne Reeves" INDEX 00 35:04:60 INDEX 01 35:06:15 TRACK 09 AUDIO TITLE "Passageway" PERFORMER "Dianne Reeves" INDEX 00 42:22:07 INDEX 01 42:23:22 TRACK 10 AUDIO TITLE "Siren Serenade" PERFORMER "Dianne Reeves" INDEX 00 47:03:30 INDEX 01 47:04:60 TRACK 11 AUDIO TITLE "Sitting In Limbo" PERFORMER "Dianne Reeves" INDEX 00 50:24:65 INDEX 01 50:26:30 TRACK 12 AUDIO TITLE "Be My Husband" PERFORMER "Dianne Reeves" INDEX 00 56:59:57 INDEX 01 57:00:55 TRACK 13 AUDIO TITLE "Separate Vacations" PERFORMER "Dianne Reeves" INDEX 00 61:02:22 INDEX 01 61:03:62

Об альбоме (сборнике)

AllMusic Review by Frank Federico
This disc reissues Dianne Reeves' entire 1982 LP Welcome to My Love, plus three tracks from 1985's For Every Heart and one selection from her days as a vocalist with the band Caldera. It contains the first recorded version of her classic "Better Days" and one of the best renditions of the overworked standard "My Funny Valentine" as you're likely to hear. On Welcome, Reeves was exploring the jazz/R&B territory she would claim as her own a decade later. "For Every Heart" was much more commercial, but the three cuts chosen here are worthwhile, especially a duet with Jon Lucien, "Separate Vacations."

[torrentc.info]_t_5422436.torrent
Торрент: Зарегистрирован ·  [ 2017-08-29 19:18 ] ·  7a8a49a857aa52b89280a1fdc7f8e34fd6e3fff4

17 KB

Статус: проверено
Скачан: 0 раз
Размер: 412 MB
Оценка: 
(Голосов: 0)
Сказали спасибо: 0  Спасибо
Похожие темы
[Профиль]    [ЛС]
Показать сообщения:    
Ответить на тему

Текущее время: Сегодня 14:01

Часовой пояс: GMT + 7



Вы не можете начинать темы
Вы не можете отвечать на сообщения
Вы не можете редактировать свои сообщения
Вы не можете удалять свои сообщения
Вы не можете голосовать в опросах
Вы не можете прикреплять файлы к сообщениям
Вы можете скачивать файлы