(Jazz / Vocal) Sasha Dobson - Modern Romance - 2006, FLAC (tracks+.cue), lossless

Ответить на тему
Статистика раздачи [Обновить пиров]
Размер:  253 MB   |    Зарегистрирован:  3 месяца 19 дней   |    Скачан:  1 раз

Полного источника не было: 2 месяца 23 дня

Личеров:  1  [  0 KB/s  ]   Подробная статистика скачивающих
 
   
 
 
 
Автор Сообщение

torrentc.info

Создавать темы 29-Авг-2017 19:23

[Цитировать]

Sasha Dobson - Modern Romance
Жанр: Jazz / Vocal
Год выхода диска: 2006
Производитель диска: Secret Sun (made in USA)
Аудио кодек: FLAC
Тип рипа: tracks+.cue
Битрейт аудио: lossless
Продолжительность: 43:29
Трэклист:
01 Without You
02 Modern Romance
03 Been Here Before
04 Cold To Colder
05 Four Leaf Clover
06 Crescent
07 If Not For Dreams
08 Follow Through
09 Spring Is Just Around The Corner
10 Young And Free
11 End Of Autumn
12 I Never Changed My Mind
13 Mood Indigo
Доп. информация:
Rip c оригинального диска студии Secret Sun Recordings.
Sasha Dobson (Саша Добсон) – джазовая вокалистка, дочь известного пианиста Смита Добсона и певицы Гейл Добсон. Начала петь еще в возрасте пяти лет. Октет аранжировщика, композитора и саксофониста Криса Биарса – один из тех коллективов, о которых в последнее время говорят все больше и больше. Альбом сделан без каких-либо обработок звука и электронных «примочек», это подлинно акустический джаз.
Audio CD (August 29, 2006)
Original Release Date: August 29, 2006
Label: Secret Sun
ASIN: B000GW8PYU

Отчёт EAC

Exact Audio Copy V0.99 prebeta 4 from 23. January 2008
Отчёт EAC об извлечении, выполненном 3. декабря 2008, 20:35
Sasha Dobson / Modern Romance
Дисковод: PIONEER DVD-RW DVR-215 Adapter: 5 ID: 0
Режим чтения : ДостоверностьИспользование точного потока : ДаОтключение кэша аудио : ДаИспользование указателей C2 : Нет
Коррекция смещения при чтении : 48Способность читать области Lead-in и Lead-out : НетЗаполнение пропущенных сэмплов тишиной : ДаУдаление блоков с тишиной в начале и конце : НетПри вычислениях CRC использовались нулевые сэмплы : ДаИнтерфейс : Встроенный Win32-интерфейс для Win NT/2000Обработка зазоров : Добавлено к предыдущему треку
Выходной формат : Внутренние WAV-операцииФормат файла сэмплов : 44.100 Гц; 16 бит; стерео
TOC извлечённого CD
Трек | Старт | Длительность | Начальный сектор | Конечный сектор --------------------------------------------------------------------- 1 | 0:00.00 | 2:51.54 | 0 | 12878 2 | 2:51.54 | 3:36.42 | 12879 | 29120 3 | 6:28.21 | 3:15.73 | 29121 | 43818 4 | 9:44.19 | 2:31.13 | 43819 | 55156 5 | 12:15.32 | 4:39.68 | 55157 | 76149 6 | 16:55.25 | 3:06.54 | 76150 | 90153 7 | 20:02.04 | 2:44.72 | 90154 | 102525 8 | 22:47.01 | 4:07.73 | 102526 | 121123 9 | 26:54.74 | 2:18.62 | 121124 | 131535 10 | 29:13.61 | 4:11.68 | 131536 | 150428 11 | 33:25.54 | 2:02.15 | 150429 | 159593 12 | 35:27.69 | 3:34.34 | 159594 | 175677 13 | 39:02.28 | 4:26.63 | 175678 | 195690
Трек 1
Имя файла C:\Users\Илья\Desktop\Without You.wav
Длина предзазора 0:00:02.00
Пиковый уровень 97.6 % Качество трека 100.0 % CRC теста CD692225 CRC копии CD692225 Точное извлечение (достоверность 5) [E13A39F5] Копирование... OK
Трек 2
Имя файла C:\Users\Илья\Desktop\Modern Romance.wav
Длина предзазора 0:00:00.71
Пиковый уровень 97.8 % Качество трека 100.0 % CRC теста 4EAB17FC CRC копии 4EAB17FC Точное извлечение (достоверность 5) [3B976A20] Копирование... OK
Трек 3
Имя файла C:\Users\Илья\Desktop\Been Here Before.wav
Длина предзазора 0:00:00.67
Пиковый уровень 98.2 % Качество трека 100.0 % CRC теста C2F75748 CRC копии C2F75748 Точное извлечение (достоверность 5) [F393F66B] Копирование... OK
Трек 4
Имя файла C:\Users\Илья\Desktop\Cold To Colder.wav
Длина предзазора 0:00:00.47
Пиковый уровень 98.0 % Качество трека 100.0 % CRC теста 301B6DCE CRC копии 301B6DCE Точное извлечение (достоверность 5) [E33DE17B] Копирование... OK
Трек 5
Имя файла C:\Users\Илья\Desktop\Four Leaf Clover.wav
Длина предзазора 0:00:00.42
Пиковый уровень 98.2 % Качество трека 99.9 % CRC теста CC09F575 CRC копии CC09F575 Точное извлечение (достоверность 5) [981D4300] Копирование... OK
Трек 6
Имя файла C:\Users\Илья\Desktop\Crescent.wav
Длина предзазора 0:00:01.13
Пиковый уровень 96.9 % Качество трека 100.0 % CRC теста 8E03065B CRC копии 8E03065B Точное извлечение (достоверность 5) [492C5838] Копирование... OK
Трек 7
Имя файла C:\Users\Илья\Desktop\If Not For Dreams.wav
Длина предзазора 0:00:00.52
Пиковый уровень 91.0 % Качество трека 100.0 % CRC теста B6CDC221 CRC копии B6CDC221 Точное извлечение (достоверность 5) [678E5AAA] Копирование... OK
Трек 8
Имя файла C:\Users\Илья\Desktop\Follow Through.wav
Длина предзазора 0:00:00.47
Пиковый уровень 97.3 % Качество трека 100.0 % CRC теста 7556400D CRC копии 7556400D Точное извлечение (достоверность 5) [7986D6B9] Копирование... OK
Трек 9
Имя файла C:\Users\Илья\Desktop\Spring Is Just Around The Corner.wav
Длина предзазора 0:00:01.05
Пиковый уровень 97.0 % Качество трека 99.9 % CRC теста C894441A CRC копии C894441A Точное извлечение (достоверность 5) [CD1B1067] Копирование... OK
Трек 10
Имя файла C:\Users\Илья\Desktop\Young And Free.wav
Длина предзазора 0:00:00.56
Пиковый уровень 98.2 % Качество трека 100.0 % CRC теста C0F9B17C CRC копии C0F9B17C Точное извлечение (достоверность 5) [D2F376FA] Копирование... OK
Трек 11
Имя файла C:\Users\Илья\Desktop\End Of Autumn.wav
Длина предзазора 0:00:00.63
Пиковый уровень 96.0 % Качество трека 99.9 % CRC теста 7C454D23 CRC копии 7C454D23 Точное извлечение (достоверность 5) [7620CAF2] Копирование... OK
Трек 12
Имя файла C:\Users\Илья\Desktop\I Never Changed My Mind.wav
Длина предзазора 0:00:00.62
Пиковый уровень 97.0 % Качество трека 100.0 % CRC теста F2745C12 CRC копии F2745C12 Точное извлечение (достоверность 5) [FF6FBC7D] Копирование... OK
Трек 13
Имя файла C:\Users\Илья\Desktop\Mood Indigo.wav
Длина предзазора 0:00:00.52
Пиковый уровень 95.7 % Качество трека 100.0 % CRC теста E03E6D0F CRC копии E03E6D0F Точное извлечение (достоверность 5) [648A9892] Копирование... OK
Все треки извлечены точно
Ошибок не произошло
Конец отчёта

[torrentc.info]_t_1304700.torrent
Торрент: Зарегистрирован ·  [ 2017-08-29 19:18 ] ·  30f4dece44a90c60c0fc76204f9d74a2c5a889fe

21 KB

Статус: проверено
Скачан: 1 раз
Размер: 253 MB
Оценка: 
(Голосов: 0)
Сказали спасибо: 0  Спасибо
Похожие темы
[Профиль]    [ЛС]
Показать сообщения:    
Ответить на тему

Текущее время: Сегодня 13:55

Часовой пояс: GMT + 7



Вы не можете начинать темы
Вы не можете отвечать на сообщения
Вы не можете редактировать свои сообщения
Вы не можете удалять свои сообщения
Вы не можете голосовать в опросах
Вы не можете прикреплять файлы к сообщениям
Вы можете скачивать файлы