(Vocal Jazz) [CD] Johnny Hartman - The Voice That Is! - 1964 (2011 Analogue), FLAC (tracks+.cue), lossless

Ответить на тему
Статистика раздачи [Обновить пиров]
Размер:  192 MB   |    Зарегистрирован:  3 месяца 19 дней   |    Скачан:  0 раз

Полного источника не было: Никогда

 
   
 
 
 
Автор Сообщение

torrentc.info

Создавать темы 29-Авг-2017 19:23

[Цитировать]

Johnny Hartman - The Voice That Is!
Жанр: Vocal Jazz
Носитель: CD
Страна-производитель диска (релиза): США
Год издания: 2011
Издатель (лейбл): Analogue Productions
Номер по каталогу: CIPJ 74 SA
Аудиокодек: FLAC (*.flac)
Тип рипа: tracks+.cue
Битрейт аудио: lossless
Продолжительность: 36:39
Источник (релизер): What.CD
Наличие сканов в содержимом раздачи: нет
Треклист:
01. The More I See You (Warren-Gordon) - 2:30
02. A Slow Hot Wind (Mancini-Gimbel) - 3:22
03. Let Me Love You (Howard) - 1:47
04. Funny World (Morricone-Brandt-Torti-Castaldo) - 4:09
05. These Foolish Things (Sprachey-Marvell) - 4:18
06. My Ship (Gershwin-Weill) - 3:09
07. The Day the World Stopped Turning (Kaye-Springer) - 2:30
08. Joey, Joey, Joey (Loesser) - 4:49
09. Sunrise, Sunset (Bock-Harnick) - 2:53
10. Waltz for Debbie (Evans-Lees) - 3:29
11. It Never Entered My Mind (Rodgers-Hart) - 3:43

Лог создания рипа

Exact Audio Copy V1.0 beta 3 from 29. August 2011
EAC extraction logfile from 21. June 2014, 22:40
Johnny Hartman / The Voice That Is!
Used drive : Optiarc DVD RW AD-7280S Adapter: 0 ID: 1
Read mode : SecureUtilize accurate stream : YesDefeat audio cache : YesMake use of C2 pointers : No
Read offset correction : 48Overread into Lead-In and Lead-Out : NoFill up missing offset samples with silence : YesDelete leading and trailing silent blocks : NoNull samples used in CRC calculations : YesUsed interface : Native Win32 interface for Win NT & 2000Gap handling : Appended to previous track
Used output format : User Defined EncoderSelected bitrate : 1024 kBit/sQuality : HighAdd ID3 tag : NoCommand line compressor : C:\Program Files\Exact Audio Copy\Flac\flac.exeAdditional command line options : -8 -V -T "ARTIST=%artist%" -T "TITLE=%title%" -T "ALBUM=%albumtitle%" -T "DATE=%year%" -T "TRACKNUMBER=%tracknr%" -T "GENRE=%genre%" -T "PERFORMER=%albuminterpret%" -T "COMPOSER=%composer%" %haslyrics%--tag-from-file=LYRICS="%lyricsfile%"%haslyrics% -T "ALBUMARTIST=%albumartist%" -T "DISCNUMBER=%cdnumber%" -T "TOTALDISCS=%totalcds%" -T "TOTALTRACKS=%numtracks%" -T "COMMENT=%comment%" %source% -o %dest%
TOC of the extracted CD
Track | Start | Length | Start sector | End sector --------------------------------------------------------- 1 | 0:00.00 | 2:30.11 | 0 | 11260 2 | 2:30.11 | 3:21.43 | 11261 | 26378 3 | 5:51.54 | 1:46.63 | 26379 | 34391 4 | 7:38.42 | 4:09.02 | 34392 | 53068 5 | 11:47.44 | 4:18.26 | 53069 | 72444 6 | 16:05.70 | 3:08.43 | 72445 | 86587 7 | 19:14.38 | 2:30.02 | 86588 | 97839 8 | 21:44.40 | 4:49.20 | 97840 | 119534 9 | 26:33.60 | 2:52.38 | 119535 | 132472 10 | 29:26.23 | 3:28.53 | 132473 | 148125 11 | 32:55.01 | 3:42.56 | 148126 | 164831
Track 1
Filename F:\What Rips\Johnny Hartman - The Voice That Is!\01. The More I See You.wav
Pre-gap length 0:00:02.00
Peak level 100.0 % Extraction speed 2.4 X Track quality 100.0 % Test CRC AB812D4E Copy CRC AB812D4E Accurately ripped (confidence 5) [8773F619] (AR v2) Copy OK
Track 2
Filename F:\What Rips\Johnny Hartman - The Voice That Is!\02. A Slow Hot Wind.wav
Pre-gap length 0:00:02.05
Peak level 81.4 % Extraction speed 2.7 X Track quality 100.0 % Test CRC 8FD66661 Copy CRC 8FD66661 Accurately ripped (confidence 5) [9E435F57] (AR v2) Copy OK
Track 3
Filename F:\What Rips\Johnny Hartman - The Voice That Is!\03. Let Me Love You.wav
Pre-gap length 0:00:01.60
Peak level 85.2 % Extraction speed 2.5 X Track quality 100.0 % Test CRC 9F6A5007 Copy CRC 9F6A5007 Accurately ripped (confidence 5) [2D399C2A] (AR v2) Copy OK
Track 4
Filename F:\What Rips\Johnny Hartman - The Voice That Is!\04. Funny World.wav
Pre-gap length 0:00:00.04
Peak level 98.8 % Extraction speed 3.1 X Track quality 100.0 % Test CRC BA24C36C Copy CRC BA24C36C Accurately ripped (confidence 5) [225638B8] (AR v2) Copy OK
Track 5
Filename F:\What Rips\Johnny Hartman - The Voice That Is!\05. These Foolish Things.wav
Pre-gap length 0:00:00.24
Peak level 68.8 % Extraction speed 3.3 X Track quality 100.0 % Test CRC 644BCFCB Copy CRC 644BCFCB Accurately ripped (confidence 5) [26A69B38] (AR v2) Copy OK
Track 6
Filename F:\What Rips\Johnny Hartman - The Voice That Is!\06. My Ship.wav
Pre-gap length 0:00:00.24
Peak level 76.3 % Extraction speed 2.9 X Track quality 99.9 % Test CRC E55B5D5A Copy CRC E55B5D5A Accurately ripped (confidence 5) [9BA4075F] (AR v2) Copy OK
Track 7
Filename F:\What Rips\Johnny Hartman - The Voice That Is!\07. Day the World Stopped Turning.wav
Pre-gap length 0:00:00.24
Peak level 74.3 % Extraction speed 2.8 X Track quality 99.9 % Test CRC 646BAE7D Copy CRC 646BAE7D Accurately ripped (confidence 5) [161630E0] (AR v2) Copy OK
Track 8
Filename F:\What Rips\Johnny Hartman - The Voice That Is!\08. Joey, Joey, Joey.wav
Pre-gap length 0:00:00.36
Peak level 78.2 % Extraction speed 3.9 X Track quality 100.0 % Test CRC 39ACE141 Copy CRC 39ACE141 Accurately ripped (confidence 5) [07EA14A0] (AR v2) Copy OK
Track 9
Filename F:\What Rips\Johnny Hartman - The Voice That Is!\09. Sunrise Sunset.wav
Pre-gap length 0:00:00.01
Peak level 84.7 % Extraction speed 3.8 X Track quality 100.0 % Test CRC 1FFB54CF Copy CRC 1FFB54CF Accurately ripped (confidence 5) [3A1A613D] (AR v2) Copy OK
Track 10
Filename F:\What Rips\Johnny Hartman - The Voice That Is!\10. Waltz For Debbie.wav
Pre-gap length 0:00:00.24
Peak level 97.1 % Extraction speed 4.0 X Track quality 100.0 % Test CRC 26453CD6 Copy CRC 26453CD6 Accurately ripped (confidence 5) [9DD312E9] (AR v2) Copy OK
Track 11
Filename F:\What Rips\Johnny Hartman - The Voice That Is!\11. It Never Entered My Mind.wav
Pre-gap length 0:00:00.04
Peak level 66.2 % Extraction speed 3.7 X Track quality 99.9 % Test CRC CDD57120 Copy CRC CDD57120 Accurately ripped (confidence 5) [0DEF5DFD] (AR v2) Copy OK
All tracks accurately ripped
No errors occurred
End of status report
==== Log checksum 9DBC117D0EF194A3E80AEB61D48EB56B2C2B64EF3EAE16B842D7BA070B532336 ====

Содержание индексной карты (.CUE)

REM GENRE JazzREM DATE 1964REM DISCID 9E08950BREM COMMENT "ExactAudioCopy v1.0b3"PERFORMER "Johnny Hartman"TITLE "The Voice That Is!"FILE "01 - The More I See You.wav" WAVE TRACK 01 AUDIO TITLE "The More I See You" PERFORMER "Johnny Hartman" INDEX 01 00:00:00 TRACK 02 AUDIO TITLE "A Slow Hot Wind" PERFORMER "Johnny Hartman" INDEX 00 02:28:07FILE "02 - A Slow Hot Wind.wav" WAVE INDEX 01 00:00:00 TRACK 03 AUDIO TITLE "Let Me Love You" PERFORMER "Johnny Hartman" INDEX 00 03:19:73FILE "03 - Let Me Love You.wav" WAVE INDEX 01 00:00:00 TRACK 04 AUDIO TITLE "Funny World" PERFORMER "Johnny Hartman" INDEX 00 01:46:60FILE "04 - Funny World.wav" WAVE INDEX 01 00:00:00 TRACK 05 AUDIO TITLE "These Foolish Things" PERFORMER "Johnny Hartman" INDEX 00 04:08:59FILE "05 - These Foolish Things.wav" WAVE INDEX 01 00:00:00 TRACK 06 AUDIO TITLE "My Ship" PERFORMER "Johnny Hartman" INDEX 00 04:18:08FILE "06 - My Ship.wav" WAVE INDEX 01 00:00:00 TRACK 07 AUDIO TITLE "The Day the World Stopped Turning" PERFORMER "Johnny Hartman" INDEX 00 03:08:25FILE "07 - The Day the World Stopped Turning.wav" WAVE INDEX 01 00:00:00 TRACK 08 AUDIO TITLE "Joey, Joey, Joey" PERFORMER "Johnny Hartman" INDEX 00 02:29:50FILE "08 - Joey, Joey, Joey.wav" WAVE INDEX 01 00:00:00 TRACK 09 AUDIO TITLE "Sunrise, Sunset" PERFORMER "Johnny Hartman" INDEX 00 04:49:19FILE "09 - Sunrise, Sunset.wav" WAVE INDEX 01 00:00:00 TRACK 10 AUDIO TITLE "Waltz for Debbie" PERFORMER "Johnny Hartman" INDEX 00 02:52:20FILE "10 - Waltz for Debbie.wav" WAVE INDEX 01 00:00:00 TRACK 11 AUDIO TITLE "It Never Entered My Mind" PERFORMER "Johnny Hartman" INDEX 00 03:28:50FILE "11 - It Never Entered My Mind.wav" WAVE INDEX 01 00:00:00

Отчет CUETools

[CUETools log; Date: 03.07.2017 1:30:35; Version: 2.1.5][CTDB TOCID: HDjfheM7cXNid8AEF54UuI91yxw-] found.Track | CTDB Status 1 | (2/2) Accurately ripped 2 | (2/2) Accurately ripped 3 | (2/2) Accurately ripped 4 | (2/2) Accurately ripped 5 | (2/2) Accurately ripped 6 | (2/2) Accurately ripped 7 | (2/2) Accurately ripped 8 | (2/2) Accurately ripped 9 | (2/2) Accurately ripped 10 | (2/2) Accurately ripped 11 | (2/2) Accurately ripped[AccurateRip ID: 000e72fc-007f327a-9e08950b] found.Track [ CRC | V2 ] Status 01 [c7827cb2|8773f619] (02+11/13) Accurately ripped 02 [b915c956|9e435f57] (02+12/14) Accurately ripped 03 [f190640c|2d399c2a] (02+12/14) Accurately ripped 04 [dda28109|225638b8] (02+12/14) Accurately ripped 05 [cf8217d9|26a69b38] (02+12/14) Accurately ripped 06 [3f7795ff|9ba4075f] (02+12/14) Accurately ripped 07 [482e127b|161630e0] (02+12/14) Accurately ripped 08 [e0f37800|07ea14a0] (02+12/14) Accurately ripped 09 [58436dbe|3a1a613d] (02+12/14) Accurately ripped 10 [b81278ac|9dd312e9] (02+12/14) Accurately ripped 11 [a9a44173|0def5dfd] (02+12/14) Accurately ripped
Track Peak [ CRC32 ] [W/O NULL] [ LOG ] -- 100,0 [4B231692] [EEEA5863] 01 100,0 [AB812D4E] [84ACAFA6] CRC32 02 81,4 [8FD66661] [D2C51BCF] CRC32 03 85,2 [9F6A5007] [66F432B5] CRC32 04 98,8 [BA24C36C] [B32F63EF] CRC32 05 68,8 [644BCFCB] [7C100789] CRC32 06 76,3 [E55B5D5A] [168BB24B] CRC32 07 74,3 [646BAE7D] [94A749BB] CRC32 08 78,2 [39ACE141] [21D5FE37] CRC32 09 84,7 [1FFB54CF] [A4B03812] CRC32 10 97,1 [26453CD6] [5A868527] CRC32 11 66,2 [CDD57120] [0CA2B662] CRC32

AllMusic Review by Scott Yanow

Ballad singer Johnny Hartman's third and final Impulse session is not quite on the same level as the first two. Although the earlier of the two sessions has several near-classic performances (including "My Ship," "Waltz for Debby," and "It Never Entered My Mind"), the second date has weaker material, primarily several songs from movies or shows, including "Sunrise, Sunset." Hartman is in fine form whether backed by the Hank Jones quartet or accompanied by an octet arranged by pianist Bob Hammer, but this set is not as essential as his earlier meetings with John Coltrane and Illinois Jacquet.

Состав

Johnny Hartman - vocals
Hank Jones (#1,5,6,10,11), Bob Hammer (#2-4,7-9) - piano
Barry Galbraith, Howard Collins (#2-4,7-9) - guitar
Richard Davis - bass
Osie Johnson - drums
Dick Hafer - reeds (#2-4,7-9)
Phil Kraus - marimba (#2-4,7-9)
Willie Rodriguez - percussion (#2-4,7-9)
Recorded in New York on September 22 (#1,5,6,10,11) and September 24 (#2-4,7-9), 1964.

[torrentc.info]_t_5423970.torrent
Торрент: Зарегистрирован ·  [ 2017-08-29 19:18 ] ·  aedfda4fe9e360e7e1afe61fbfd1b312561ed0ce

16 KB

Статус: проверено
Скачан: 0 раз
Размер: 192 MB
Оценка: 
(Голосов: 0)
Сказали спасибо: 0  Спасибо
Похожие темы
[Профиль]    [ЛС]
Показать сообщения:    
Ответить на тему

Текущее время: Сегодня 13:49

Часовой пояс: GMT + 7



Вы не можете начинать темы
Вы не можете отвечать на сообщения
Вы не можете редактировать свои сообщения
Вы не можете удалять свои сообщения
Вы не можете голосовать в опросах
Вы не можете прикреплять файлы к сообщениям
Вы можете скачивать файлы