Насмешливое моё счастье (Михаил Резникович) [1966, Сценический роман в письмах, TVRip] Киевский Государственный академический русский драматический театр им. Леси Украинки

Ответить на тему
Статистика раздачи [Обновить пиров]
Размер:  1.09 GB   |    Зарегистрирован:  1 год   |    Скачан:  0 раз

Полного источника не было: Никогда

 
   
 
 
 
Автор Сообщение

torrentc.info

Создавать темы 22-Авг-2017 21:37

[Цитировать]

Насмешливое моё счастье Название театра: Киевский Государственный академический русский драматический театр им. Леси Украинки.
Год выхода: 1966.
Жанр: Сценический роман в письмах.
Продолжительность: 01:24:58.
Язык: Русский.
Режиссер-постановщик: Михаил Резникович.
Действующие лица и исполнители:
Антон Чехов - Вячеслав Езепов,
Александр Чехов - Николай Рушковский,
Мария Чехова - Изабелла Павлова (Шульмейстер),
Лика Мизинова - Ада Роговцева,
Ольга Книппер - Лариса Кадочникова,
Алексей Пешков - Александр Парра.
О спектакле:
Время действия: 1884-1904 годы.
"Я думаю, главное кроется в пьесе, то есть в поразительно современных, западающих в душу каждого человека мыслях Чехова. Они так умны, тонки, пронзительны, исповедальны, правдивы, парадоксальны, образны - они на все времена. И если артисты доносят их до зрителя искренне, с душой, умом и сердцем, то зритель счастливо внимает им, задумывается над своей жизнью и внутренне эмоционально благодарит и Чехова, и театр за глоток нравственного кислорода, который нужен людям всегда.
В письмах Чехова звучит неподдельная боль, почти отчаяние от трагического непонимания обществом дара таланта, боль, отвергающая банальность в восприятии литературы и искусства.
Ставя и играя , мы поневоле прикасаемся и к глубоко запрятанной личной драме Чехова. Горечь Чехова, помноженная на вынужденное одиночество - почти тюрьму - в Ялте, где ему приходилось проводить зимы из-за болезни, рождала эти удивительные по своей трезвости и мудрой безнадежности мысли, под которыми и сегодня могут подписаться многие".
Эти слова принадлежат режиссеру спектакля, его создателю - Михаилу Юрьевичу Резниковичу.
Этот спектакль дважды видел подмостки Театра русской драмы. Впервые это произошло почти сорок лет назад, в 1966 году. Поставленный тогда спектакль с неизменным успехом шел на сцене восемнадцать лет.

Дополнительная информация:
Страна: СССР .
Выпущено: Киевский Государственный академический русский драматический театр им. Леси Украинки, Укртелефильм.
Автор: Леонид Малюгин.
Художник: Давид Боровский.


Рип sharky.
Огромное спасибо художнику jumpex со студии постеров кинозала за великолепный постер!!!

Качество видео:...TVRip
Формат файла:.................AVI
Видео:..704x528 (1.33:1), 25 fps, XviD build 47 ~1634 kbps avg, 0.18 bit/pixel
Аудио:..48 kHz, AC3 Dolby Digital, 2/0 (L,R) ch, ~192 kbps

Отчет MI

General
Complete name : Nasmeshlivoe.moyo.schast'e_Kievskij.GARDT.im.Lesi.Ukrainki.1966.XviD.TVRip.fenixclub-2.avi
Format : AVI
Format/Info : Audio Video Interleave
File size : 1.09 GiB
Duration : 1h 24mn
Overall bit rate : 1 837 Kbps
Writing application : VirtualDubMod 1.5.10.2 (build 2540/release)
Writing library : VirtualDubMod build 2540/release
Video
ID : 0
Format : MPEG-4 Visual
Format profile : Advanced Simple@L5
Format settings, BVOP : 1
Format settings, QPel : No
Format settings, GMC : No warppoints
Format settings, Matrix : Default (H.263)
Codec ID : XVID
Codec ID/Hint : XviD
Duration : 1h 24mn
Bit rate : 1 635 Kbps
Width : 704 pixels
Height : 528 pixels
Display aspect ratio : 4:3
Frame rate : 25.000 fps
Color space : YUV
Chroma subsampling : 4:2:0
Bit depth : 8 bits
Scan type : Progressive
Compression mode : Lossy
Bits/(Pixel*Frame) : 0.176
Stream size : 994 MiB (89%)
Writing library : XviD 1.2.0.dev47 (UTC 2006-11-01)
Audio
ID : 1
Format : AC-3
Format/Info : Audio Coding 3
Mode extension : CM (complete main)
Format settings, Endianness : Big
Codec ID : 2000
Duration : 1h 24mn
Bit rate mode : Constant
Bit rate : 192 Kbps
Channel(s) : 2 channels
Channel positions : Front: L R
Sampling rate : 48.0 KHz
Frame rate : 31.250 fps (1536 spf)
Compression mode : Lossy
Stream size : 117 MiB (10%)
Alignment : Split accross interleaves
Interleave, duration : 40 ms (1.00 video frame)
Interleave, preload duratio : 500 ms.

Скриншоты




[torrentc.info]_t_5436132.torrent
Торрент: Зарегистрирован ·  [ 2017-08-22 21:36 ] ·  592b3197f618684e5086d2341e445d5a95a13fad

11 KB

Статус: проверено
Скачан: 0 раз
Размер: 1.09 GB
Оценка: 
(Голосов: 0)
Сказали спасибо: 0  Спасибо
Похожие темы
[Профиль]    [ЛС]
Показать сообщения:    
Ответить на тему

Текущее время: Сегодня 08:20

Часовой пояс: GMT + 7



Вы не можете начинать темы
Вы не можете отвечать на сообщения
Вы не можете редактировать свои сообщения
Вы не можете удалять свои сообщения
Вы не можете голосовать в опросах
Вы не можете прикреплять файлы к сообщениям
Вы можете скачивать файлы