До свидания, мальчики (Андрей Прикотенко) [2006, драма, военный, TVRip] Учебный театр на Моховой

Ответить на тему
Статистика раздачи [Обновить пиров]
Размер:  747 MB   |    Зарегистрирован:  1 год 1 месяц   |    Скачан:  0 раз
Сидеров:  1  [  0 KB/s  ]   Подробная статистика скачивающих
 
   
 
 
 
Автор Сообщение

torrentc.info

Создавать темы 22-Авг-2017 21:37

[Цитировать]

До свидания, мальчики Название театра: Учебный театр на Моховой (Санкт-Петербургская академия театрального искусства).
Год выхода: 2006.
Жанр: драма, военный.
Продолжительность: 01:21:36.
Режиссер: Андрей Прикотенко.
В ролях: студенты курса Вениамина Фильштинского.
О спектакле:
На сцене - горстка совсем молодых парней в шинелях и кирзачах, идущих в ногу, застывших в первом или последнем шаге в сторону войны.
Девочки в белых платьицах замерли, вытянув шеи - "До свидания, мальчики...".
Всех мальчиков убьют под первым же обстрелом.
И только один останется в живых - и весь спектакль - это будет его "воспоминание".
В основе спектакля стихи и проза Булата Окуджавы.
Спектакль посвящен памяти студентов театрального института, погибших на фронтах Великой Отечественной войны и во время блокады.
В финале спектакля на экране показывают фотографии выпускников Театральной академии, погибших на войне.
Зрители видят на этих фотографиях тех, кому так и не суждено было выйти на профессиональную сцену, и сказать "До свидания, мальчики...".

Дополнительная информация:
Страна: Россия .
Автор: Булат Окуджава.
Съемка состоялась 8 мая 2006 года.



Качество видео:...TVRip
Формат файла:.................AVI
Видео:..720x544 (1.32:1), 25 fps, XviD MPEG-4 ~1142 kbps avg, 0.12 bit/pixel
Аудио:..44.100 kHz, MPEG Layer 3, 2 ch, ~128.00 kbps avg

Отчет MI

General
Complete name : Do.svidaniya.mal'chiki_Uchebnyj.teatr.na Mohovoj.2006.XviD.TVRip.fenixclub.avi
Format : AVI
Format/Info : Audio Video Interleave
File size : 747 MiB
Duration : 1h 21mn
Overall bit rate : 1 281 Kbps
Writing application : VirtualDubModRus 1.5.10.2 (build 2542/release)
Writing library : VirtualDub build 32842/release
Video
ID : 0
Format : MPEG-4 Visual
Format profile : Advanced Simple@L5
Format settings, BVOP : 2
Format settings, QPel : No
Format settings, GMC : No warppoints
Format settings, Matrix : Default (MPEG)
Codec ID : XVID
Codec ID/Hint : XviD
Duration : 1h 21mn
Bit rate : 1 143 Kbps
Width : 720 pixels
Height : 544 pixels
Display aspect ratio : 4:3
Frame rate : 25.000 fps
Color space : YUV
Chroma subsampling : 4:2:0
Bit depth : 8 bits
Scan type : Progressive
Compression mode : Lossy
Bits/(Pixel*Frame) : 0.117
Stream size : 667 MiB (89%)
Writing library : XviD 73
Audio
ID : 1
Format : MPEG Audio
Format version : Version 1
Format profile : Layer 3
Mode : Joint stereo
Mode extension : MS Stereo
Codec ID : 55
Codec ID/Hint : MP3
Duration : 1h 21mn
Bit rate mode : Constant
Bit rate : 128 Kbps
Channel(s) : 2 channels
Sampling rate : 44.1 KHz
Compression mode : Lossy
Stream size : 74.7 MiB (10%)
Alignment : Split accross interleaves
Interleave, duration : 40 ms (1.00 video frame)
Interleave, preload duratio : 500 ms
Writing library : LAME3.98.2

Скриншоты



[torrentc.info]_t_5437486.torrent
Торрент: Зарегистрирован ·  [ 2017-08-22 21:36 ] ·  bd07622937ba6fe726b008cead92e6a7b5d29eb3

15 KB

Статус: проверено
Скачан: 0 раз
Размер: 747 MB
Оценка: 
(Голосов: 0)
Сказали спасибо: 0  Спасибо
Похожие темы
[Профиль]    [ЛС]
Показать сообщения:    
Ответить на тему

Текущее время: Сегодня 21:08

Часовой пояс: GMT + 7



Вы не можете начинать темы
Вы не можете отвечать на сообщения
Вы не можете редактировать свои сообщения
Вы не можете удалять свои сообщения
Вы не можете голосовать в опросах
Вы не можете прикреплять файлы к сообщениям
Вы можете скачивать файлы