Сказка о Золотом петушке (Константин Кучикин) [2011, сказка, TVRip] Челябинский государственный молодёжный театр (бывший Челябинский государственный театр юных зрителей)

Ответить на тему
Статистика раздачи [Обновить пиров]
Размер:  702 MB   |    Зарегистрирован:  9 месяцев 26 дней   |    Скачан:  0 раз

Полного источника не было: Никогда

 
   
 
 
 
Автор Сообщение

torrentc.info

Создавать темы 22-Авг-2017 21:37

[Цитировать]

Сказка о Золотом петушке Название театра: Челябинский государственный молодёжный театр (бывший Челябинский государственный театр юных зрителей).
Год выхода: 2011.
Жанр: сказка.
Продолжительность: 01:00:18.
Режиссер-постановщик: Константин Кучикин.
В ролях:
Наталья Антонова, Борис Черев, Андрей Гаврилюк, Павел Каштанов, Денис Филоненко, Светлана Худякова, Елена Кузьмина, Кира Ханжина, Гурина Жанна, Елена Красусская, Черепанов Александр, Чиликина Наталья, Елена Шингареева, Алексей Согрин, Вячеслав Косарев, Екатерина Филимонова, Константин Цачурин, Антон Ремезов, Мария Меньшенина.
О спектакле:
"Сказку о Золотом петушке" рассказывает няня Пушкина – Арина Родионовна. В спектакль органично вплелись нити фольклорной музыки. Многие песни связаны с биографией самого Пушкина: это колыбельные, которые пела ему няня. Действие проходит на фоне народного хора, его песен, считалок.
Что касается сюжета, то все, конечно же, происходит "в тридевятом царстве, в тридесятом государстве", где живет славный царь Дадон. Его величество на старости лет больше не может оборонять свое царство от воинственных соседей. Мудрец дарит ему золотого петушка, который заблаговременно предупреждает царя об опасности. За это царь обещает мудрецу, исполнить любое его желание...

Дополнительная информация:
Запись с XVIII Всероссийского театрального Пушкинского фестиваля.
Страна: Россия .
Автор: Александр Пушкин.
Художник: Андрей Непомнящий.
Художник по костюмам: Елена Хохлович.
Композитор: Александр Новиков.
Музыкальный руководитель: Анна Розенберг.
Хореограф: заслуженный работник культуры России Галина Калошина.

О спектакле.


Качество видео:...TVRip
Формат файла:.................AVI
Видео:..640x368 (1.74:1), 25 fps, XviD MPEG-4 ~1489 kbps avg, 0.25 bit/pixel
Аудио:..44.100 kHz, MPEG Layer 3, 2 ch, ~128.00 kbps avg

Отчет MI

General
Complete name : Skazka.o.zolotom.petushke_Chtlyabinskij.gosudarstvennyj.molodyozhnyj.teatr.2011.XviD.TVRip.fenixclub.avi
Format : AVI
Format/Info : Audio Video Interleave
File size : 702 MiB
Duration : 1h 0mn
Overall bit rate : 1 628 Kbps
Writing application : VirtualDubModRus 1.5.10.2 (build 2542/release)
Writing library : VirtualDub build 32842/release
Video
ID : 0
Format : MPEG-4 Visual
Format profile : Advanced Simple@L5
Format settings, BVOP : 2
Format settings, QPel : No
Format settings, GMC : No warppoints
Format settings, Matrix : Default (H.263)
Codec ID : XVID
Codec ID/Hint : XviD
Duration : 1h 0mn
Bit rate : 1 490 Kbps
Width : 640 pixels
Height : 368 pixels
Display aspect ratio : 1.739
Frame rate : 25.000 fps
Color space : YUV
Chroma subsampling : 4:2:0
Bit depth : 8 bits
Scan type : Progressive
Compression mode : Lossy
Bits/(Pixel*Frame) : 0.253
Stream size : 643 MiB (92%)
Writing library : XviD 73
Audio
ID : 1
Format : MPEG Audio
Format version : Version 1
Format profile : Layer 3
Mode : Joint stereo
Mode extension : MS Stereo
Codec ID : 55
Codec ID/Hint : MP3
Duration : 1h 0mn
Bit rate mode : Constant
Bit rate : 128 Kbps
Channel(s) : 2 channels
Sampling rate : 44.1 KHz
Compression mode : Lossy
Stream size : 55.2 MiB (8%)
Alignment : Split accross interleaves
Interleave, duration : 40 ms (1.00 video frame)
Interleave, preload duratio : 500 ms
Writing library : LAME3.98.2

Скриншоты



[torrentc.info]_t_5437673.torrent
Торрент: Зарегистрирован ·  [ 2017-08-22 21:36 ] ·  8fdb7f24261b3be2be2ac36c9e3a3b7201dd6862

14 KB

Статус: проверено
Скачан: 0 раз
Размер: 702 MB
Оценка: 
(Голосов: 0)
Сказали спасибо: 0  Спасибо
Похожие темы
[Профиль]    [ЛС]
Показать сообщения:    
Ответить на тему

Текущее время: Сегодня 10:57

Часовой пояс: GMT + 7



Вы не можете начинать темы
Вы не можете отвечать на сообщения
Вы не можете редактировать свои сообщения
Вы не можете удалять свои сообщения
Вы не можете голосовать в опросах
Вы не можете прикреплять файлы к сообщениям
Вы можете скачивать файлы