Ивонна, принцесса Бургундская (Владимир Мирзоев) [2011, фарс, WEB-DLRip] Государственный академический театр имени Евг. Вахтангова

Ответить на тему
Статистика раздачи [Обновить пиров]
Размер:  1.37 GB   |    Зарегистрирован:  1 год 1 месяц   |    Скачан:  1 раз
Сидеров:  4  [  0 KB/s  ]   Подробная статистика скачивающих
 
   
 
 
 
Автор Сообщение

torrentc.info

Создавать темы 22-Авг-2017 21:37

[Цитировать]

Ивонна, принцесса Бургундская Название театра: Государственный академический театр имени Евг.Вахтангова.
Год выхода: 2011.
Жанр: фарс.
Продолжительность: 02:19:03.
Режиссер: Владимир Мирзоев.
Действующие лица и исполнители:
Ивонна - Лиза Арзамасова,
Король Игнаций - Ефим Шифрин,
Королева Маргарита - заслуженная артистка России Марина Есипенко,
Принц Филипп - Дмитрий Соломыкин,
Камергер - аслуженный артист России Юрий Шлыков,
Иза, придворная дама - Анна Антонова,
Кирилл, друг принца - Артур Иванов,
Киприан, друг принца - Валерий Ушаков,
Тетки Ивонны - заслуженная артистка РСФСР Агнесса Петерсон, заслуженная артистка РСФСР, заслуженный деятель искусств Польши Элеонора Шашкова,
Инокентий, он же нищий - Олег Лопухов,
Валентин, лакей - заслуженный артист РСФСР Евгений Федоров.
О спектакле:
Действие происходит в некоем сказочном королевстве, но близость фашизма ощущается так же четко, как звериная жестокость в жеманных репликах персонажей спектакля.
В некотором царстве, в неназванном государстве живет королевская семья. Наследный принц, пресыщенный эротическими приключениями встречает на прогулке необычную девицу и влюбляется в нее. Она ни на кого не похожа, странно себя ведет и почти не разговаривает, своим болезненным и безответным видом страшно бесит окружающих. И хотя она чуть жива, ее подозревают в высокомерии, насмешливости и даже сладострастии – во всех тех грехах, которым подвержены король, королева, принц и их придворные.
"Она до такой степени раздражает меня, что я женюсь на ней", - заявляет принц.
Надоедает она потом и принцу. В конце концов, Ивонну решают убить, причем каждый из членов королевской семьи предлагает свой способ умерщвления, но наиболее эффективным оказывается самый странный из них - подсунуть ненавистной принцессе на обед карасей, дабы она поперхнулась и умерла...

Дополнительная информация:
Страна: Россия .
Автор: Витольд Гомбрович.
Сценография и костюмы: Алла Коженкова.
Художник по свету: Майя Шавдатуашвили.
Музыкальное оформление: Фаустас Латенас.
Хореограф: Артур Ощепков.

О спектакле.


Качество видео:...WEB-DLRip
Формат файла:.................AVI
Видео:..720x416 (1.73:1), 25 fps, XviD MPEG-4 ~1271 kbps avg, 0.17 bit/pixel
Аудио:..44.100 kHz, MPEG Layer 3, 2 ch, ~128.00 kbps avg

Отчет MI

General
Complete name : Ivonna.princessa.Burgundskaya_Teatr.im.Vahtangova.2011.XviD.WEB-DLRip.fenixclub.avi
Format : AVI
Format/Info : Audio Video Interleave
File size : 1.37 GiB
Duration : 2h 19mn
Overall bit rate : 1 410 Kbps
Writing application : VirtualDubModRus 1.5.10.2 (build 2542/release)
Writing library : VirtualDub build 32842/release
Video
ID : 0
Format : MPEG-4 Visual
Format profile : Advanced Simple@L5
Format settings, BVOP : 2
Format settings, QPel : No
Format settings, GMC : No warppoints
Format settings, Matrix : Default (H.263)
Codec ID : XVID
Codec ID/Hint : XviD
Duration : 2h 19mn
Bit rate : 1 272 Kbps
Width : 720 pixels
Height : 416 pixels
Display aspect ratio : 1.731
Frame rate : 25.000 fps
Color space : YUV
Chroma subsampling : 4:2:0
Bit depth : 8 bits
Scan type : Progressive
Compression mode : Lossy
Bits/(Pixel*Frame) : 0.170
Stream size : 1.24 GiB (90%)
Writing library : XviD 73
Audio
ID : 1
Format : MPEG Audio
Format version : Version 1
Format profile : Layer 3
Mode : Joint stereo
Mode extension : MS Stereo
Codec ID : 55
Codec ID/Hint : MP3
Duration : 2h 19mn
Bit rate mode : Constant
Bit rate : 128 Kbps
Channel(s) : 2 channels
Sampling rate : 44.1 KHz
Compression mode : Lossy
Stream size : 127 MiB (9%)
Alignment : Split accross interleaves
Interleave, duration : 40 ms (1.00 video frame)
Interleave, preload duratio : 500 ms
Writing library : LAME3.98.2

Скриншоты




[torrentc.info]_t_5437764.torrent
Торрент: Зарегистрирован ·  [ 2017-08-22 21:36 ] ·  c637f8861f2726a4f5d066eee19e0b8111a151ba

14 KB

Статус: проверено
Скачан: 1 раз
Размер: 1.37 GB
Оценка: 
(Голосов: 0)
Сказали спасибо: 0  Спасибо
Похожие темы
[Профиль]    [ЛС]
Показать сообщения:    
Ответить на тему

Текущее время: Сегодня 21:01

Часовой пояс: GMT + 7



Вы не можете начинать темы
Вы не можете отвечать на сообщения
Вы не можете редактировать свои сообщения
Вы не можете удалять свои сообщения
Вы не можете голосовать в опросах
Вы не можете прикреплять файлы к сообщениям
Вы можете скачивать файлы