Чудесное путешествие Нильса с дикими гусями (Алла Кавцевич) [1973, сказка, кукольный телеспектакль, TVRip]

Ответить на тему
Статистика раздачи [Обновить пиров]
Размер:  1.36 GB   |    Зарегистрирован:  1 год 3 месяца   |    Скачан:  0 раз

Полного источника не было: Никогда

 
   
 
 
 
Автор Сообщение

torrentc.info

Создавать темы 22-Авг-2017 21:37

[Цитировать]

Чудесное путешествие Нильса с дикими гусями (2 серии) Год выхода: 1973.
Жанр: сказка, кукольный телеспектакль.
Продолжительность: 00:48:49 + 00:47:42 (01:36:31).
Режиссер: Алла Кавцевич.
В ролях:
Любовь Донскова, Владимир Кукушкин, Валерия Кисилева, Владимир Корзаков, Владимир Мартьянов, Полина Семенова, Илья Альперович, Александр Корзаков, Вениамин Советов, Эдуард Драбкин, Владислав Прудников, Майя Усаровская, Наталья Карикова, Кира Кукушкина.
Описание:
Чудесное путешествие Нильса с дикими гусями - волшебная история о том, как мальчик посмеялся над лесным гномом, а тот превратил его в маленького человечка.
Совершенно случайно Нильс отправился вместе со стаей диких гусей в долгое, полное приключений путешествие.

Доп. информация:
Страна: СССР .
Выпущено: Ленинградское телевидение.
Автор: Сельма Лагерлеф.
Автор сценария: Владимир Уфлянд.
Ведущий оператор: Анатолий Пузыня.
Композитор: Игорь Цветков.
Художник: Леонид Дефур.


Качество: TVRip
Формат файла: AVI
Видео: 640x480 (1.33:1), 25 fps, XviD MPEG-4 ~1884 kbps avg, 0.25 bit/pixel
Аудио: 44.100 kHz, MPEG Layer 3, 2 ch, ~128.00 kbps avg

Отчет MI

1-я серия:
General
Complete name : Chudesnoe.puteshestvie.Nil'sa.s.dikimi.gusyami.1973.XviD.TVRip.fenixclub\Chudesnoe.puteshestvie.Nil'sa.1.avi
Format : AVI
Format/Info : Audio Video Interleave
File size : 706 MiB
Duration : 48mn 49s
Overall bit rate : 2 023 Kbps
Writing application : VirtualDubModRus 1.5.10.2 (build 2542/release)
Writing library : VirtualDub build 32842/release
Video
ID : 0
Format : MPEG-4 Visual
Format profile : Advanced Simple@L5
Format settings, BVOP : 2
Format settings, QPel : No
Format settings, GMC : No warppoints
Format settings, Matrix : Default (MPEG)
Codec ID : XVID
Codec ID/Hint : XviD
Duration : 48mn 49s
Bit rate : 1 885 Kbps
Width : 640 pixels
Height : 480 pixels
Display aspect ratio : 4:3
Frame rate : 25.000 fps
Color space : YUV
Chroma subsampling : 4:2:0
Bit depth : 8 bits
Scan type : Progressive
Compression mode : Lossy
Bits/(Pixel*Frame) : 0.245
Stream size : 658 MiB (93%)
Writing library : XviD 73
Audio
ID : 1
Format : MPEG Audio
Format version : Version 1
Format profile : Layer 3
Mode : Joint stereo
Mode extension : MS Stereo
Codec ID : 55
Codec ID/Hint : MP3
Duration : 48mn 49s
Bit rate mode : Constant
Bit rate : 128 Kbps
Channel(s) : 2 channels
Sampling rate : 44.1 KHz
Compression mode : Lossy
Stream size : 44.7 MiB (6%)
Alignment : Split accross interleaves
Interleave, duration : 40 ms (1.00 video frame)
Interleave, preload duratio : 500 ms.
2-я серия:
General
Complete name : Chudesnoe.puteshestvie.Nil'sa.s.dikimi.gusyami.1973.XviD.TVRip.fenixclub\Chudesnoe.puteshestvie.Nil'sa.2.avi
Format : AVI
Format/Info : Audio Video Interleave
File size : 690 MiB
Duration : 47mn 42s
Overall bit rate : 2 023 Kbps
Writing application : VirtualDubModRus 1.5.10.2 (build 2542/release)
Writing library : VirtualDub build 32842/release
Video
ID : 0
Format : MPEG-4 Visual
Format profile : Advanced Simple@L5
Format settings, BVOP : 2
Format settings, QPel : No
Format settings, GMC : No warppoints
Format settings, Matrix : Default (MPEG)
Codec ID : XVID
Codec ID/Hint : XviD
Duration : 47mn 42s
Bit rate : 1 885 Kbps
Width : 640 pixels
Height : 480 pixels
Display aspect ratio : 4:3
Frame rate : 25.000 fps
Color space : YUV
Chroma subsampling : 4:2:0
Bit depth : 8 bits
Scan type : Progressive
Compression mode : Lossy
Bits/(Pixel*Frame) : 0.245
Stream size : 643 MiB (93%)
Writing library : XviD 73
Audio
ID : 1
Format : MPEG Audio
Format version : Version 1
Format profile : Layer 3
Mode : Joint stereo
Mode extension : MS Stereo
Codec ID : 55
Codec ID/Hint : MP3
Duration : 47mn 42s
Bit rate mode : Constant
Bit rate : 128 Kbps
Channel(s) : 2 channels
Sampling rate : 44.1 KHz
Compression mode : Lossy
Stream size : 43.7 MiB (6%)
Alignment : Split accross interleaves
Interleave, duration : 40 ms (1.00 video frame)
Interleave, preload duratio : 500 ms.

Скриншоты



[torrentc.info]_t_5438112.torrent
Торрент: Зарегистрирован ·  [ 2017-08-22 21:36 ] ·  48306001553407556fd470820124988ba28ff095

14 KB

Статус: проверено
Скачан: 0 раз
Размер: 1.36 GB
Оценка: 
(Голосов: 0)
Сказали спасибо: 0  Спасибо
Похожие темы
[Профиль]    [ЛС]
Показать сообщения:    
Ответить на тему

Текущее время: Сегодня 23:11

Часовой пояс: GMT + 7



Вы не можете начинать темы
Вы не можете отвечать на сообщения
Вы не можете редактировать свои сообщения
Вы не можете удалять свои сообщения
Вы не можете голосовать в опросах
Вы не можете прикреплять файлы к сообщениям
Вы можете скачивать файлы