Будь Классным, Скуби-Ду! / Be Cool, Scooby-Doo! / Сезон: 2 / Серии: 1-6 из 23 (Джеф Медников / Jeff Mednikow, Шонт Нигогосян / Shaunt Nigoghossian, Энди Том / Andi Thom) [2017, США, Мультипликация, HDTVRip 1080] Dub

Ответить на тему
Статистика раздачи [Обновить пиров]
Размер:  3.82 GB   |    Зарегистрирован:  9 месяцев 17 дней   |    Скачан:  0 раз

Полного источника не было: Никогда

 
   
 
 
 
Автор Сообщение

torrentc.info

Создавать темы 05-Авг-2017 00:20

[Цитировать]

Будь Классным, Скуби-Ду! / Be Cool, Scooby-Doo!
Страна: США
Жанр: Мультипликация
Продолжительность: ~00:23:00
Год выхода: 2017
Перевод: Профессиональный (дублированный)
Русские субтитры: нет-Режиссёр: Джеф Медников / Jeff Mednikow, Шонт Нигогосян / Shaunt Nigoghossian, Энди Том / Andi Thom
Роли озвучивали: Грэй Гриффин, Мэттью Лиллард, Кейт Микуччи, Фрэнк Уэлкер-Описание: Действие мультсериала Be Cool, Scooby-Doo! происходит после того, как герои заканчивают выпускной класс в школе. Полагая, что вместе провести лето им еще не скоро удастся, они решают отправиться на своем фургончике тайн, который Фрэд улучшил с помощью своих супер современных приборов. Как можно уже догадаться, на пути у них будет много монстров, которые то и дело, будут пытаться сделать так, чтобы путешествие Скуби-Ду и его банды не закончилось успешно.- - -Качество: HDTVRip 1080
Формат файла: MKV
Видео: AVC, 1920x1080 (16:9), 25.000 fps, 3 693 Kbps (0.071 bit/pixel)
Аудио 1: AC-3, 48.0 KHz, 2 ch, 192 Kbps, CBR (Russian)
Аудио 2: AC-3, 48.0 KHz, 2 ch, 192 Kbps, CBR (English)
Субтитры: отсутствуют
Семпл: Забираем тут

Список серий:

1 - Some Fred Time / Фреду нужен отпуск
2 - There Wolf / Оборотень
3 - Renn Scare / Страшный шут
4 - How to Train Your Coward / Как победить в себе труса
5 - Worst in Show / Худший на выставке
6 - Mysteries on the Disorient Express / Ужас в затерянном экспрессе
7 - Halloween
8 - The Curse of Kaniaku
9 - Vote Velma
10 - Scroogey Doo
11 - In Space
12 - Doo Not Disturb
13 - Silver Scream
14 - Fright of Hand
15 - Greece is the Word
16 - American Goth
17 - Omelettes are Forever
18 - Ghost in the Mystery Machine
19 - Naughty or Ice
20 - Night of the Upsetting Shorts
21 - Junkyard Dogs
22 - Protein Titans 2
23 - World of Witchcraft

Внимание! Раздача ведется путем добавления новых серий

Внимание! Раздача ведётся путём добавления новых серий; при каждом добавлении создаётся новый торрент. Чтобы начать докачку новой серии, пользователям необходимо сделать следующее:
(1) остановить скачивание,
(2) удалить старый торрент у себя из клиента (старые серии удалять не надо),
(3) скачать новый торрент и запустить его у себя в клиенте вместо старого, при этом указать клиенту путь в старую папку куда и должно происходить скачивание новых серий.
Ваш клиент при этом должен произвести хеширование (проверку) старой папки (если не производит сам - помогите ему сделать это), и будет докачивать только те серии которых у вас ещё нет. Старые серии при этом не удаляются, а продолжают раздаваться!
Eсли вы уже удалили старые серии, то предотвратить повторную закачку старых серий можно, отжав галочку в соответсвующих местах при запуске нового торрента. По возможности, желательно не удалять старые серии как можно дольше чтобы релизёр не столько продолжал раздавать старые серии, а смог сконцентрироваться на новых.

Подробные технические данные

ОбщееУникальный идентификатор : 214091850453748524968266711881231995609 (0xA110972F30AEE69DA0980F2F0FD592D9)Полное имя : Be Cool, Scooby-Doo! - S02E02 There Wolf 1080i.mkvФормат файла : MatroskaВерсия формата : Version 4 / Version 2Размер файла : 627 МбайтПродолжительность : 21 м.Общий поток : 4080 Кбит/секДата кодирования : UTC 2017-07-25 11:42:02Программа кодирования : mkvmerge v8.8.0 ('Wind at my back') 64bitБиблиотека кодирования : libebml v1.3.3 + libmatroska v1.4.4
ВидеоИдентификатор : 1Формат файла : AVCФормат файла/Информация : Advanced Video CodecПрофиль формата : High@L4.1Параметр CABAC формата : ДаПараметр ReFrames формата : 4 кадраИдентификатор кодека : V_MPEG4/ISO/AVCПродолжительность : 21 м.Битрейт : 3693 Кбит/секШирина : 1920 пикселейВысота : 1080 пикселейСоотношение сторон : 16:9Режим частоты кадров : ПостоянныйЧастота кадров : 25,000 кадров/секЦветовое пространство : YUVСубдискретизация насыщенности : 4:2:0Битовая глубина : 8 битТип развёртки : ПрогрессивнаяБит/(Пиксели*Кадры) : 0.071Размер потока : 567 Мбайт (91%)Библиотека кодирования : x264 core 146 r2538 121396cНастройки программы : cabac=1 / ref=4 / deblock=1:0:0 / analyse=0x3:0x133 / me=umh / subme=10 / psy=1 / psy_rd=1.00:0.00 / mixed_ref=1 / me_range=32 / chroma_me=1 / trellis=2 / 8x8dct=1 / cqm=0 / deadzone=21,11 / fast_pskip=0 / chroma_qp_offset=-2 / threads=6 / lookahead_threads=1 / sliced_threads=0 / nr=0 / decimate=0 / interlaced=0 / bluray_compat=0 / constrained_intra=0 / bframes=4 / b_pyramid=2 / b_adapt=2 / b_bias=0 / direct=3 / weightb=1 / open_gop=0 / weightp=2 / keyint=250 / keyint_min=25 / scenecut=40 / intra_refresh=0 / rc_lookahead=40 / rc=2pass / mbtree=1 / bitrate=3693 / ratetol=1.0 / qcomp=0.60 / qpmin=0 / qpmax=69 / qpstep=4 / cplxblur=20.0 / qblur=0.5 / ip_ratio=1.40 / aq=1:0.80Язык : EnglishDefault : ДаForced : Нет
Аудио #1Идентификатор : 2Формат файла : AC-3Формат файла/Информация : Audio Coding 3Расширение режима : CM (complete main)Параметр Endianness формата : BigИдентификатор кодека : A_AC3Продолжительность : 21 м.Вид битрейта : ПостоянныйБитрейт : 192 Кбит/секКаналы : 2 каналаРасположение каналов : Front: L RЧастота : 48,0 КГцЧастота кадров : 31,250 кадров/сек (1536 spf)Метод сжатия : С потерямиРазмер потока : 29,5 Мбайт (5%)Язык : RussianDefault : ДаForced : Нет
Аудио #2Идентификатор : 3Формат файла : AC-3Формат файла/Информация : Audio Coding 3Расширение режима : CM (complete main)Параметр Endianness формата : BigИдентификатор кодека : A_AC3Продолжительность : 21 м.Вид битрейта : ПостоянныйБитрейт : 192 Кбит/секКаналы : 2 каналаРасположение каналов : Front: L RЧастота : 48,0 КГцЧастота кадров : 31,250 кадров/сек (1536 spf)Метод сжатия : С потерямиРазмер потока : 29,5 Мбайт (5%)Язык : EnglishDefault : НетForced : Нет


[torrentc.info]_t_5432946.torrent
Торрент: Зарегистрирован ·  [ 2017-08-05 00:18 ] ·  fbfb4a4873c55181b9a585d5a9716b760f315538

20 KB

Статус: проверено
Скачан: 0 раз
Размер: 3.82 GB
Оценка: 
(Голосов: 0)
Сказали спасибо: 0  Спасибо
Похожие темы
[Профиль]    [ЛС]
Показать сообщения:    
Ответить на тему

Текущее время: Сегодня 13:27

Часовой пояс: GMT + 7



Вы не можете начинать темы
Вы не можете отвечать на сообщения
Вы не можете редактировать свои сообщения
Вы не можете удалять свои сообщения
Вы не можете голосовать в опросах
Вы не можете прикреплять файлы к сообщениям
Вы можете скачивать файлы