(Ethereal / Dream Pop) [CD] Blue Dahlia - Blue Dahlia - 1996, FLAC (image+.cue), lossless

Ответить на тему
Статистика раздачи [Обновить пиров]
Размер:  366 MB   |    Зарегистрирован:  1 год   |    Скачан:  0 раз

Полного источника не было: Никогда

Личеров:  1  [  0 KB/s  ]   Подробная статистика скачивающих
 
   
 
 
 
Автор Сообщение

torrentc.info

Создавать темы 21-Июл-2017 23:48

[Цитировать]

Blue Dahlia / Blue Dahlia
Жанр: Ethereal / Dream Pop
Носитель: CD
Год издания: 1996
Издатель (лейбл): Saint Thomas Records
Номер по каталогу: STP0036
Страна исполнителя (группы): USA
Аудиокодек: FLAC (*.flac)
Тип рипа: image+.cue
Битрейт аудио: lossless
Продолжительность: 00:50:12
Источник (релизер): свой рип
Наличие сканов в содержимом раздачи: да
Трек-лист:
01. Just For You. (04:41)
02. Strange Ways. (04:05)
03. Tether. (04:38)
04. Look Up. (03:14)
05. In Absentia. (04:22)
06. Angel Wings. (03:33)
07. Fate. (04:44)
08. Silhouette. (03:11)
09. Invisible. (03:59)
10. Drenched. (03:59)
11. Intoxicate. (04:51)
12. Colored Ribbons. (04:55)- -

Лог создания рипа

Exact Audio Copy V1.1 from 23. June 2015
EAC extraction logfile from 8. July 2017, 2:28
Blue Dahlia / Blue Dahlia
Used drive : PIONEER DVD-RW DVR-111D Adapter: 1 ID: 0
Read mode : SecureUtilize accurate stream : YesDefeat audio cache : YesMake use of C2 pointers : No
Read offset correction : 48Overread into Lead-In and Lead-Out : NoFill up missing offset samples with silence : YesDelete leading and trailing silent blocks : NoNull samples used in CRC calculations : YesUsed interface : Native Win32 interface for Win NT & 2000
Used output format : User Defined EncoderSelected bitrate : 1024 kBit/sQuality : HighAdd ID3 tag : NoCommand line compressor : D:\Flac\flac.exeAdditional command line options : -V -8 -T "Date=%year%" -T "Genre=%genre%" %source%
TOC of the extracted CD
Track | Start | Length | Start sector | End sector --------------------------------------------------------- 1 | 0:00.00 | 4:41.07 | 0 | 21081 2 | 4:41.07 | 4:05.10 | 21082 | 39466 3 | 8:46.17 | 4:38.08 | 39467 | 60324 4 | 13:24.25 | 3:14.22 | 60325 | 74896 5 | 16:38.47 | 4:22.00 | 74897 | 94546 6 | 21:00.47 | 3:32.43 | 94547 | 110489 7 | 24:33.15 | 4:44.17 | 110490 | 131806 8 | 29:17.32 | 3:10.58 | 131807 | 146114 9 | 32:28.15 | 3:58.47 | 146115 | 164011 10 | 36:26.62 | 3:58.68 | 164012 | 181929 11 | 40:25.55 | 4:51.20 | 181930 | 203774 12 | 45:17.00 | 4:54.50 | 203775 | 225874
Range status and errors
Selected range
Filename D:\Rips from Dаrkmind\Blue Dahlia - Blue Dahlia.wav
Peak level 99.9 % Extraction speed 6.7 X Range quality 100.0 % Test CRC D5FCB23A Copy CRC D5FCB23A Copy OK
No errors occurred
AccurateRip summary
Track 1 accurately ripped (confidence 1) [A8661F6B] (AR v2)Track 2 accurately ripped (confidence 1) [5C804314] (AR v2)Track 3 accurately ripped (confidence 1) [92D3A7C6] (AR v2)Track 4 accurately ripped (confidence 1) [D299AE80] (AR v2)Track 5 accurately ripped (confidence 1) [C14EE0A0] (AR v2)Track 6 accurately ripped (confidence 1) [FE44D056] (AR v2)Track 7 accurately ripped (confidence 1) [DD3553AE] (AR v2)Track 8 accurately ripped (confidence 1) [1F24CB9A] (AR v2)Track 9 accurately ripped (confidence 1) [E0AD6A2C] (AR v2)Track 10 accurately ripped (confidence 1) [D812DEE9] (AR v2)Track 11 accurately ripped (confidence 1) [45CB4C74] (AR v2)Track 12 accurately ripped (confidence 1) [25E220A8] (AR v2)
All tracks accurately ripped
End of status report
---- CUETools DB Plugin V2.1.6
[CTDB TOCID: tf2KWAiH0HqAwuB..ZK0U8Wlnb8-] disk not present in databaseSubmit result: tf2KWAiH0HqAwuB..ZK0U8Wlnb8- has been uploaded
==== Log checksum 1060E67A68EB85B7C64FD75FE896DC8DAB1FB6786B8612B825F31241D7ACD3AD ====

Лог проверки качества

-----------------------
DON'T MODIFY THIS FILE
-----------------------
PERFORMER: auCDtect Task Manager, ver. 1.6.0 RC1 build 1.6.0.1Copyright (c) 2008-2010 y-soft. All rights reservedhttp://y-soft.org
ANALYZER: auCDtect: CD records authenticity detector, version 0.8.2Copyright (c) 2004 Oleg Berngardt. All rights reserved.Copyright (c) 2004 Alexander Djourik. All rights reserved.
FILE: Blue Dahlia - Blue Dahlia.flac Size: 279427954 Hash: C8F7886E463D7B1599DE2EC8FB26BD31 Accuracy: -m0 Conclusion: CDDA 100% Signature: F8C508B83E248A3B392F91A4E912DAFBAC429587
-

Состав

Michelle Graf - vocals.
Derek Menchinger - electric and acoustic guitar, mandolin, vocals.
Karla Wescott - acoustic guitar, bass.
Carolyn Koebel - hammered dulcimer, percussion, congas, bodhran, dumbeg.

Credits

Recorded and mixed by Mike Roche at Broadside Productions, Kalamazoo, Michigan between August 1995 and March 1996.
Colored Ribbons recorded and mixed by Derek Menchinger at Soundstage 1, Galesburg, Michigan, October 1996.
Produced Mike Roche and Blue Dahlia.
Premastering by Vince Miller and Derek Menchinger at Soundstage 1, Galesburg, Michigan.
Graphic design by Randon Chisnell.
Front cover by Kathryn von Maur.
Gravestone photo by Stephen Owen.
Logo designed by Danielle Garzelloni.


[torrentc.info]_t_5429626.torrent
Торрент: Зарегистрирован ·  [ 2017-07-21 23:42 ] ·  d4503c7a798965e1183a0302a6fd08be67f8bdc5

15 KB

Статус: проверено
Скачан: 0 раз
Размер: 366 MB
Оценка: 
(Голосов: 0)
Сказали спасибо: 0  Спасибо
Похожие темы
[Профиль]    [ЛС]
Показать сообщения:    
Ответить на тему

Текущее время: Сегодня 10:20

Часовой пояс: GMT + 7



Вы не можете начинать темы
Вы не можете отвечать на сообщения
Вы не можете редактировать свои сообщения
Вы не можете удалять свои сообщения
Вы не можете голосовать в опросах
Вы не можете прикреплять файлы к сообщениям
Вы можете скачивать файлы