(Vocal Jazz) [CD] Amanda Brecker - Way to Be - 2014 (Japan Edition), FLAC (tracks+.cue), lossless

Ответить на тему
Статистика раздачи [Обновить пиров]
Размер:  307 MB   |    Зарегистрирован:  6 месяцев 4 дня   |    Скачан:  1 раз

Полного источника не было: 5 месяцев 6 дней

 
   
 
 
 
Автор Сообщение

torrentc.info

Создавать темы 13-Июн-2017 23:40

[Цитировать]

Amanda Brecker - Way to Be
Жанр: Vocal Jazz
Носитель: CD
Страна-производитель диска (релиза): Япония
Год издания: 2014
Издатель (лейбл): Area Azzurra
Номер по каталогу: UCCJ-3034
Аудиокодек: FLAC (*.flac)
Тип рипа: tracks+.cue
Битрейт аудио: lossless
Продолжительность: 41:49
Источник (релизер): dadaawcd
Наличие сканов в содержимом раздачи: да
Треклист:
01. Free (Brecker) - 4:27
02. Ciranda (feat. Tiago Iorc) (Faraco-Gomes) - 3:14
03. Evolution of Love (Brecker-Harris) - 3:26
04. De Noite na Cama (Veloso) - 3:44
05. Way to Be (Harris) - 2:50
06. Papo Furado (feat. Projeto Quabales) (Brecker) - 3:24
07. Long Way to Go (Cardinaux) - 2:46
08. Gimme Your Sunshine (Brecker-Harris) - 3:22
09. Running (Elias-Mendez-Christy) - 3:31
10. Far Away You Are (Brecker) - 4:11
11. Aguas de Marco (Jobim) - 3:09
12. Voa (Brecker) - 3:45

Лог создания рипа

Exact Audio Copy V1.3 from 2. September 2016
EAC extraction logfile from 18. December 2016, 11:12
Amanda Brecker / Way To Be
Used drive : PIONEER BD-RW BDR-207D Adapter: 1 ID: 0
Read mode : SecureUtilize accurate stream : YesDefeat audio cache : YesMake use of C2 pointers : No
Read offset correction : 667Overread into Lead-In and Lead-Out : NoFill up missing offset samples with silence : YesDelete leading and trailing silent blocks : NoNull samples used in CRC calculations : YesUsed interface : Native Win32 interface for Win NT & 2000Gap handling : Appended to previous track
Used output format : User Defined EncoderSelected bitrate : 768 kBit/sQuality : HighAdd ID3 tag : NoCommand line compressor : Z:\Program Files\EAC\FLAC\FLAC.EXEAdditional command line options : -6 -V -T "ARTIST=%artist%" -T "TITLE=%title%" -T "ALBUM=%albumtitle%" -T "DATE=%year%" -T "TRACKNUMBER=%tracknr%" -T "GENRE=%genre%" -T "COMMENT=%comment%" -T "BAND=%albuminterpret%" -T "ALBUMARTIST=%albuminterpret%" -T "COMPOSER=%composer%" %haslyrics%--tag-from-file=LYRICS="%lyricsfile%"%haslyrics% -T "DISCNUMBER=%cdnumber%" -T "TOTALDISCS=%totalcds%" -T "TOTALTRACKS=%numtracks%" %hascover%--picture="%coverfile%"%hascover% %source% -o %dest%
TOC of the extracted CD
Track | Start | Length | Start sector | End sector --------------------------------------------------------- 1 | 0:00.00 | 4:26.58 | 0 | 20007 2 | 4:26.58 | 3:13.49 | 20008 | 34531 3 | 7:40.32 | 3:26.01 | 34532 | 49982 4 | 11:06.33 | 3:43.47 | 49983 | 66754 5 | 14:50.05 | 2:50.21 | 66755 | 79525 6 | 17:40.26 | 3:24.04 | 79526 | 94829 7 | 21:04.30 | 2:46.28 | 94830 | 107307 8 | 23:50.58 | 3:22.33 | 107308 | 122490 9 | 27:13.16 | 3:31.19 | 122491 | 138334 10 | 30:44.35 | 4:11.12 | 138335 | 157171 11 | 34:55.47 | 3:08.50 | 157172 | 171321 12 | 38:04.22 | 3:44.47 | 171322 | 188168
Track 1
Filename C:\___\Amanda Brecker - Way To Be (2014)\01 Free.wav
Pre-gap length 0:00:02.00
Peak level 98.8 % Extraction speed 4.4 X Track quality 100.0 % Test CRC 6E87E360 Copy CRC 6E87E360 Accurately ripped (confidence 9) [77DC9CB9] (AR v2) Copy OK
Track 2
Filename C:\___\Amanda Brecker - Way To Be (2014)\02 Ciranda Featuring. Tiago Iorc.wav
Peak level 98.8 % Extraction speed 4.5 X Track quality 100.0 % Test CRC 4AA6FA72 Copy CRC 4AA6FA72 Accurately ripped (confidence 9) [F1380BDB] (AR v2) Copy OK
Track 3
Filename C:\___\Amanda Brecker - Way To Be (2014)\03 Evolution Of Love.wav
Peak level 98.8 % Extraction speed 4.9 X Track quality 100.0 % Test CRC BC624759 Copy CRC BC624759 Accurately ripped (confidence 9) [CF5D7DF1] (AR v2) Copy OK
Track 4
Filename C:\___\Amanda Brecker - Way To Be (2014)\04 De Noite Na Cama.wav
Peak level 98.8 % Extraction speed 5.2 X Track quality 100.0 % Test CRC 62F68689 Copy CRC 62F68689 Accurately ripped (confidence 9) [6D4895BF] (AR v2) Copy OK
Track 5
Filename C:\___\Amanda Brecker - Way To Be (2014)\05 Way To Be.wav
Peak level 98.8 % Extraction speed 4.5 X Track quality 99.9 % Test CRC AF244D77 Copy CRC AF244D77 Accurately ripped (confidence 9) [06A5B875] (AR v2) Copy OK
Track 6
Filename C:\___\Amanda Brecker - Way To Be (2014)\06 Papo Furado Featuring. Projeto Quabales.wav
Peak level 98.8 % Extraction speed 5.7 X Track quality 100.0 % Test CRC 39AD4A16 Copy CRC 39AD4A16 Accurately ripped (confidence 9) [C25B5FC3] (AR v2) Copy OK
Track 7
Filename C:\___\Amanda Brecker - Way To Be (2014)\07 Long Way To Go.wav
Peak level 98.8 % Extraction speed 5.6 X Track quality 100.0 % Test CRC 5B052828 Copy CRC 5B052828 Accurately ripped (confidence 9) [606B7367] (AR v2) Copy OK
Track 8
Filename C:\___\Amanda Brecker - Way To Be (2014)\08 Gimme Your Sunshine.wav
Peak level 98.8 % Extraction speed 6.0 X Track quality 100.0 % Test CRC 48D28E48 Copy CRC 48D28E48 Accurately ripped (confidence 9) [52BFCB0F] (AR v2) Copy OK
Track 9
Filename C:\___\Amanda Brecker - Way To Be (2014)\09 Running.wav
Peak level 98.8 % Extraction speed 6.3 X Track quality 100.0 % Test CRC 6A2936F7 Copy CRC 6A2936F7 Accurately ripped (confidence 9) [6BE62D3F] (AR v2) Copy OK
Track 10
Filename C:\___\Amanda Brecker - Way To Be (2014)\10 Far Away You Are.wav
Peak level 98.8 % Extraction speed 6.7 X Track quality 100.0 % Test CRC 94C88134 Copy CRC 94C88134 Accurately ripped (confidence 9) [7DC55276] (AR v2) Copy OK
Track 11
Filename C:\___\Amanda Brecker - Way To Be (2014)\11 Aguas De Marco.wav
Peak level 98.8 % Extraction speed 6.6 X Track quality 100.0 % Test CRC B058223A Copy CRC B058223A Accurately ripped (confidence 9) [9CAE113A] (AR v2) Copy OK
Track 12
Filename C:\___\Amanda Brecker - Way To Be (2014)\12 Voa.wav
Peak level 98.8 % Extraction speed 7.0 X Track quality 100.0 % Test CRC 900A423E Copy CRC 900A423E Accurately ripped (confidence 9) [9DA6AE08] (AR v2) Copy OK
All tracks accurately ripped
No errors occurred
End of status report
---- CUETools DB Plugin V2.1.6
[CTDB TOCID: v9ktSdMcwysAAPW5F_O2.169sxk-] foundSubmit result: v9ktSdMcwysAAPW5F_O2.169sxk- has been confirmedTrack | CTDB Status 1 | (8/8) Accurately ripped 2 | (8/8) Accurately ripped 3 | (8/8) Accurately ripped 4 | (8/8) Accurately ripped 5 | (8/8) Accurately ripped 6 | (8/8) Accurately ripped 7 | (8/8) Accurately ripped 8 | (8/8) Accurately ripped 9 | (8/8) Accurately ripped 10 | (8/8) Accurately ripped 11 | (8/8) Accurately ripped 12 | (8/8) Accurately ripped
==== Log checksum 99A106879C1EAA68B4934F9B43E2E1CADA286AB6314426DFC2DE2B9FFA4CBFCE ====

Содержание индексной карты (.CUE)

REM GENRE JazzREM DATE 2014REM DISCID AD09CC0CREM COMMENT "ExactAudioCopy v1.3"CATALOG 0600406462022PERFORMER "Amanda Brecker"TITLE "Way to Be"FILE "01 - Free.wav" WAVE TRACK 01 AUDIO TITLE "Free" PERFORMER "Amanda Brecker" ISRC JPPO01406679 INDEX 01 00:00:00FILE "02 - Ciranda (feat. Tiago Iorc).wav" WAVE TRACK 02 AUDIO TITLE "Ciranda (feat. Tiago Iorc)" PERFORMER "Amanda Brecker" ISRC JPPO01406680 INDEX 01 00:00:00FILE "03 - Evolution of Love.wav" WAVE TRACK 03 AUDIO TITLE "Evolution of Love" PERFORMER "Amanda Brecker" ISRC JPPO01406681 INDEX 01 00:00:00FILE "04 - De Noite na Cama.wav" WAVE TRACK 04 AUDIO TITLE "De Noite na Cama" PERFORMER "Amanda Brecker" ISRC JPPO01406682 INDEX 01 00:00:00FILE "05 - Way to Be.wav" WAVE TRACK 05 AUDIO TITLE "Way to Be" PERFORMER "Amanda Brecker" ISRC JPPO01406683 INDEX 01 00:00:00FILE "06 - Papo Furado (feat. Projeto Quabales).wav" WAVE TRACK 06 AUDIO TITLE "Papo Furado (feat. Projeto Quabales)" PERFORMER "Amanda Brecker" ISRC JPPO01406684 INDEX 01 00:00:00FILE "07 - Long Way to Go.wav" WAVE TRACK 07 AUDIO TITLE "Long Way to Go" PERFORMER "Amanda Brecker" ISRC JPPO01406685 INDEX 01 00:00:00FILE "08 - Gimme Your Sunshine.wav" WAVE TRACK 08 AUDIO TITLE "Gimme Your Sunshine" PERFORMER "Amanda Brecker" ISRC JPPO01406686 INDEX 01 00:00:00FILE "09 - Running.wav" WAVE TRACK 09 AUDIO TITLE "Running" PERFORMER "Amanda Brecker" ISRC JPPO01406687 INDEX 01 00:00:00FILE "10 - Far Away You Are.wav" WAVE TRACK 10 AUDIO TITLE "Far Away You Are" PERFORMER "Amanda Brecker" ISRC JPPO01406688 INDEX 01 00:00:00FILE "11 - Aguas de Marco.wav" WAVE TRACK 11 AUDIO TITLE "Aguas de Marco" PERFORMER "Amanda Brecker" ISRC JPPO01406689 INDEX 01 00:00:00FILE "12 - Voa.wav" WAVE TRACK 12 AUDIO TITLE "Voa" PERFORMER "Amanda Brecker" ISRC JPPO01406690 INDEX 01 00:00:00

Отчет CUETools

[CUETools log; Date: 11.06.2017 0:06:57; Version: 2.1.5][CTDB TOCID: v9ktSdMcwysAAPW5F_O2.169sxk-] found.Track | CTDB Status 1 | (12/12) Accurately ripped 2 | (12/12) Accurately ripped 3 | (12/12) Accurately ripped 4 | (12/12) Accurately ripped 5 | (12/12) Accurately ripped 6 | (12/12) Accurately ripped 7 | (12/12) Accurately ripped 8 | (12/12) Accurately ripped 9 | (12/12) Accurately ripped 10 | (12/12) Accurately ripped 11 | (12/12) Accurately ripped 12 | (12/12) Accurately ripped[AccurateRip ID: 0012c65f-00add9c0-ad09cc0c] found.Track [ CRC | V2 ] Status 01 [fe7f0ca7|77dc9cb9] (03+09/12) Accurately ripped 02 [a6928c52|f1380bdb] (03+09/12) Accurately ripped 03 [6079f22f|cf5d7df1] (03+09/12) Accurately ripped 04 [d8ac49d9|6d4895bf] (03+09/12) Accurately ripped 05 [d9a0b28e|06a5b875] (03+09/12) Accurately ripped 06 [2423dbaa|c25b5fc3] (03+09/12) Accurately ripped 07 [52d57510|606b7367] (03+09/12) Accurately ripped 08 [9bf7a6f0|52bfcb0f] (03+09/12) Accurately ripped 09 [073c0369|6be62d3f] (03+09/12) Accurately ripped 10 [48bf58ef|7dc55276] (03+09/12) Accurately ripped 11 [1ad89694|9cae113a] (03+09/12) Accurately ripped 12 [43b987f3|9da6ae08] (03+09/12) Accurately ripped
Track Peak [ CRC32 ] [W/O NULL] [ LOG ] -- 98,8 [49918E8D] [95EB9857] 01 98,8 [6E87E360] [D982E06C] CRC32 02 98,8 [4AA6FA72] [DDBAB2DD] CRC32 03 98,8 [BC624759] [EAAA0A06] CRC32 04 98,8 [62F68689] [7AF8AC85] CRC32 05 98,8 [AF244D77] [E5571484] CRC32 06 98,8 [39AD4A16] [225E9365] CRC32 07 98,8 [5B052828] [929C7BD0] CRC32 08 98,8 [48D28E48] [A9EBEC14] CRC32 09 98,8 [6A2936F7] [4B49D534] CRC32 10 98,8 [94C88134] [311D9C64] CRC32 11 98,8 [B058223A] [F805F36E] CRC32 12 98,8 [900A423E] [60682C82] CRC32

Об альбоме (сборнике)

Amanda Brecker is a talented singer/songwriter and daughter of trumpeter Randy Brecker and pianist/singer Eliane Elias. Her debut CD from 2008 Here I Am became an instant hit in Japan, and her sophomore release Brazilian Passion earned the coveted status of Swing Journal Gold Disc. Her third album Blossom was a bit of a departure, it being a tribute to Carole King and James Taylor.
Like the third album, Amanda's latest release Way To Be was produced by Jesse Harris, the singer-songwrither and producer who's known for his association with Norah Jones. The music on this album can be described as jazzy pop with strong Brazilian flavors. The supporting musicians include two Brazilians (Joao Pedro Mourao on guitar and Mauro Refosco on drums and percussion), Los Angeles-based guitarist Anthony wilson, and New York-based keyboardist Sam Barsh.
The eclectic program includes six originals by Amanda and Harris, a few songs by contemporary singer-songwriters, Eliane Elias' tune "Running" and Antonio Carlos Jobim's classic "Waters of March." Five of the twelve songs are sung in Portuguese. Brazilian singer-songwriter Tiago Iorc sings a duet with Amanda on "Ciranda" and percussion group from Bahia, Brazil "Projeto Quabales" lend their hands on "Papo Furado."

Состав

Amanda Brecker - acoustic guitar, vocals
Joao Pedro Mourao - acoustic and electric guitar
Gabriel Noel - electric bass, electric upright bass, cello
Mauro Refosco - drums, percussion, electronics
Anthony Wilson - electric guitar (#1,8,11,12)
Sam Barsh - electric piano, piano
Leo Costa - percussion (#6)
Ada Rovatti - tenor saxophone (#4,6)
Randy Brecker - trumpet, flugelhorn (#4,5)
Jesse Harris - twelve-string guitar (#3,4,7,9,10,12)
Tiago Iorc - vocals (#2,12)
Recorded at MCJ Studio, Los Angeles, CA.

[torrentc.info]_t_5414916.torrent
Торрент: Зарегистрирован ·  [ 2017-06-13 23:36 ] ·  5678e3d9ceaaa1846f6478fb49f2fc192c6379e5

14 KB

Статус: проверено
Скачан: 1 раз
Размер: 307 MB
Оценка: 
(Голосов: 0)
Сказали спасибо: 0  Спасибо
Похожие темы
[Профиль]    [ЛС]
Показать сообщения:    
Ответить на тему

Текущее время: Сегодня 13:50

Часовой пояс: GMT + 7



Вы не можете начинать темы
Вы не можете отвечать на сообщения
Вы не можете редактировать свои сообщения
Вы не можете удалять свои сообщения
Вы не можете голосовать в опросах
Вы не можете прикреплять файлы к сообщениям
Вы можете скачивать файлы