На любовь своё сердце настрою… (Сергей Бызгу) [2013, музыкальный, DVB-AVC] Учебный театр «На Моховой»

Ответить на тему
Статистика раздачи [Обновить пиров]
Размер:  1.87 GB   |    Зарегистрирован:  1 год 4 месяца   |    Скачан:  0 раз
Сидеров:  1  [  0 KB/s  ]   Личеров:  2  [  0 KB/s  ]   Подробная статистика скачивающих
 
   
 
 
 
Автор Сообщение

torrentc.info

Создавать темы 10-Июн-2017 11:43

[Цитировать]

На любовь своё сердце настрою…
Название театра: Учебный театр «На Моховой»
Жанр: музыкальный
Год выхода: 2013
Продолжительность: 01:46:17
Режиссёр: Сергей Бызгу
В ролях: студенты курса Сергея Бызгу, выпуск 2013 года: Артём Уренков, Алишер Умаров, Виктор Чепрасов, Мария Васильева, Джейн Ким, Ульяна Локотко, Станислав Толстов, Полина Шустарева, Юзя Ха, Екатерина Никольская, Евгения Голубева, Дмитрий Кушнерёв, Бекарий Цулукидзе, Антон Москалёв, Антон Ивлев, Анна Рябинина, Татьяна Беляева, Никита Костюкевич
Описание: Музыкальный спектакль по мотивам творчества Булата Окуджавы «На любовь свое сердце настрою» — удивительная возможность без всякого волшебства и машины времени перенестись в 60-е годы ХХ века.
Посидеть в дружеской компании на коммунальной кухне, послушать любимые песни, уловить зыбкую лирическую интонацию тех лет, потерянную сегодня. Живой звук, энергия молодых актеров и доверительная интонация навеют радостные и грустные мысли о минувшем дне и сегодняшнем времени. Кроме того, спектакль станет еще одной попыткой молодых сказать спасибо поколению «шестидесятых» и самому Б. Окуджаве, короткой телеграммой в зал, собранной из стихов и музыки известного композитора.
В спектакле звучат песни в исполнении Булата Окуджавы: «Гори, огонь, гори», «Дежурный по апрелю», а также стихотворение «Воспоминание о Дне победы».-Премьера состоялась 17 ноября 2012 года
Музыкальное руководство: Е. Шабунио, А. Пирог
Художник: А. Храмцов-Качество видео: DVB
Формат файла: MKV
Видео: AVC (H264), 720x576@785x576 (4:3), анаморф, 25 fps, 2208 kbps
Аудио: MP2, 256 kbps, 2 channels, 48 kHz

MediaInfo

GeneralUnique ID : 33464051250609669994815978122689761131 (0x192CF11C30D137F9BAF6190F8ED1CF6B)Complete name : C:\Hamlet.dvbts\На любовь своё сердце настрою.mkvFormat : MatroskaFormat version : Version 2File size : 1.87 GiBDuration : 1 h 46 minOverall bit rate : 2 514 kb/sWriting application : Lavf54.63.104Writing library : Lavf54.63.104
VideoID : 1Format : AVCFormat/Info : Advanced Video CodecFormat profile : Main@L3Format settings, CABAC : YesFormat settings, ReFrames : 4 framesFormat settings, GOP : M=4, N=24Codec ID : V_MPEG4/ISO/AVCDuration : 1 h 46 minBit rate : 2 208 kb/sWidth : 720 pixelsHeight : 576 pixelsDisplay aspect ratio : 4:3Original display aspect ratio : 4:3Frame rate mode : ConstantFrame rate : 25.000 FPSStandard : PALColor space : YUVChroma subsampling : 4:2:0Bit depth : 8 bitsScan type : MBAFFScan type, store method : Interleaved fieldsScan order : Top Field FirstBits/(Pixel*Frame) : 0.213Stream size : 1.64 GiB (88%)Default : NoForced : NoColor range : LimitedColor primaries : BT.601 PALTransfer characteristics : BT.470 System B, BT.470 System GMatrix coefficients : BT.601
AudioID : 2Format : MPEG AudioFormat version : Version 1Format profile : Layer 2Codec ID : A_MPEG/L2Codec ID/Hint : MP2Duration : 1 h 46 minBit rate mode : ConstantBit rate : 256 kb/sChannel(s) : 2 channelsSampling rate : 48.0 kHzCompression mode : LossyStream size : 195 MiB (10%)Language : EnglishDefault : YesForced : No

Скриншоты



[torrentc.info]_t_5413751.torrent
Торрент: Зарегистрирован ·  [ 2017-06-10 11:42 ] ·  1a4020f0cde9141371c5a573b57100be25cc0b3c

19 KB

Статус: проверено
Скачан: 0 раз
Размер: 1.87 GB
Оценка: 
(Голосов: 0)
Сказали спасибо: 0  Спасибо
Похожие темы
[Профиль]    [ЛС]
Показать сообщения:    
Ответить на тему

Текущее время: Сегодня 14:01

Часовой пояс: GMT + 7



Вы не можете начинать темы
Вы не можете отвечать на сообщения
Вы не можете редактировать свои сообщения
Вы не можете удалять свои сообщения
Вы не можете голосовать в опросах
Вы не можете прикреплять файлы к сообщениям
Вы можете скачивать файлы