(New Wave of British Heavy Metal) [CD] VA - Metal For Muthas - 2000 (1980), FLAC (image+.cue), lossless

Ответить на тему
Статистика раздачи [Обновить пиров]
Размер:  281 MB   |    Зарегистрирован:  11 месяцев 16 дней   |    Скачан:  0 раз

Полного источника не было: Никогда

 
   
 
 
 
Автор Сообщение

torrentc.info

Создавать темы 05-Июн-2017 22:39

[Цитировать]

Metal For Muthas
[img=right]https://dl.dropboxusercontent.com/u/35415146/Torren...as%201.jpg[/img]
Жанр: New Wave of British Heavy Metal
Носитель: CD
Страна-производитель диска (релиза): UK
Год издания: 2000 (1980)
Издатель (лейбл): Sanctuary Records
Номер по каталогу: NR 4522
Страна исполнителя (группы): UK
Аудиокодек: FLAC (*.flac)
Тип рипа: image+.cue
Битрейт аудио: lossless
Продолжительность: 0:40:53.400 (108 194 940 samples)
Источник (релизер): igorockas
Наличие сканов в содержимом раздачи: да
Треклист:
01 - Iron Maiden - Sanctuary
02 - Sledgehammer - Sledgehammer
03 - E.F.Band - Fighting for Rock and Roll
04 - Toad The Wet Sprocket - Blues in A
05 - Praying Mantis - Captured City
06 - Ethel The Frog - Fight Back
07 - Angel Witch - Baphomet
08 - Iron Maiden - Wrathchild
09 - Samson - Tomorrow Or Yesterday
10 - Nutz - Bootliggers

Лог создания рипа

Exact Audio Copy V1.3 from 2. September 2016
EAC extraction logfile from 14. May 2017, 7:34
Various Artists / Metal For Muthas
Used drive : HL-DT-STDVDRAM GUD0N Adapter: 1 ID: 0
Read mode : SecureUtilize accurate stream : YesDefeat audio cache : YesMake use of C2 pointers : No
Read offset correction : 102Overread into Lead-In and Lead-Out : NoFill up missing offset samples with silence : YesDelete leading and trailing silent blocks : NoNull samples used in CRC calculations : YesUsed interface : Native Win32 interface for Win NT & 2000
Used output format : User Defined EncoderSelected bitrate : 896 kBit/sQuality : HighAdd ID3 tag : NoCommand line compressor : C:\Program Files (x86)\Exact Audio Copy\Flac\flac.exeAdditional command line options : -V -8 -T "Date=%year%" -T "Genre=%genre%" %source%
TOC of the extracted CD
Track | Start | Length | Start sector | End sector --------------------------------------------------------- 1 | 0:00.00 | 3:32.25 | 0 | 15924 2 | 3:32.25 | 3:10.00 | 15925 | 30174 3 | 6:42.25 | 3:34.17 | 30175 | 46241 4 | 10:16.42 | 3:44.00 | 46242 | 63041 5 | 14:00.42 | 5:31.68 | 63042 | 87934 6 | 19:32.35 | 2:59.27 | 87935 | 101386 7 | 22:31.62 | 4:58.63 | 101387 | 123799 8 | 27:30.50 | 3:10.17 | 123800 | 138066 9 | 30:40.67 | 5:31.08 | 138067 | 162899 10 | 36:12.00 | 4:41.30 | 162900 | 184004
Range status and errors
Selected range
Filename C:\Users\tseln\Downloads\Various Artists - Metal For Muthas.wav
Peak level 100.0 % Extraction speed 3.9 X Range quality 100.0 % Test CRC AD75C0D8 Copy CRC AD75C0D8 Copy OK
No errors occurred
AccurateRip summary
Track 1 accurately ripped (confidence 2) [A6D2F5D4] (AR v2)Track 2 accurately ripped (confidence 2) [C1FD9417] (AR v2)Track 3 accurately ripped (confidence 2) [15ED2E3F] (AR v2)Track 4 accurately ripped (confidence 2) [4F7B6041] (AR v2)Track 5 accurately ripped (confidence 2) [5A52FF2F] (AR v2)Track 6 accurately ripped (confidence 2) [89AE4D2A] (AR v2)Track 7 accurately ripped (confidence 2) [E3BDF55E] (AR v2)Track 8 accurately ripped (confidence 2) [8E8782A8] (AR v2)Track 9 accurately ripped (confidence 2) [6D29B939] (AR v2)Track 10 accurately ripped (confidence 2) [F68D8FCA] (AR v2)
All tracks accurately ripped
End of status report
---- CUETools DB Plugin V2.1.6
[CTDB TOCID: mrfHq7z2TLCxQbxOnw._zUgx9nQ-] foundSubmit result: already submittedTrack | CTDB Status 1 | (12/12) Accurately ripped 2 | (12/12) Accurately ripped 3 | (12/12) Accurately ripped 4 | (12/12) Accurately ripped 5 | (12/12) Accurately ripped 6 | (12/12) Accurately ripped 7 | (11/12) Accurately ripped 8 | (12/12) Accurately ripped 9 | ( 3/12) Accurately ripped 10 | (12/12) Accurately ripped
==== Log checksum 877FA183A850CEEC28220F29D50829CA38FA0443074555A0055635FC0D945A64 ====

Содержание индексной карты (.CUE)

REM GENRE "Heavy Metal"REM DATE 2001REM DISCID 7209950AREM COMMENT "ExactAudioCopy v1.3"PERFORMER "Various Artists"TITLE "Metal For Muthas"REM COMPOSER ""FILE "Various Artists - Metal For Muthas.flac" WAVE TRACK 01 AUDIO TITLE "Sanctuary" PERFORMER "Iron Maiden" REM COMPOSER "" INDEX 01 00:00:00 TRACK 02 AUDIO TITLE "Sledgehammer" PERFORMER "Sledgehammer" REM COMPOSER "" INDEX 00 03:31:47 INDEX 01 03:32:25 TRACK 03 AUDIO TITLE "Fighting For Rock And Roll" PERFORMER "E.F. Band" REM COMPOSER "" INDEX 00 06:42:00 INDEX 01 06:42:25 TRACK 04 AUDIO TITLE "Blues in A" PERFORMER "Toad The Wet Sprocket" REM COMPOSER "" INDEX 00 10:13:22 INDEX 01 10:16:42 TRACK 05 AUDIO TITLE "Captured City" PERFORMER "Praying Mantis" REM COMPOSER "" INDEX 00 13:59:00 INDEX 01 14:00:42 TRACK 06 AUDIO TITLE "Fight Back" PERFORMER "Ethel The Frog" REM COMPOSER "" INDEX 00 19:32:20 INDEX 01 19:32:35 TRACK 07 AUDIO TITLE "Baphomet" PERFORMER "Angel Witch" REM COMPOSER "" INDEX 00 22:31:35 INDEX 01 22:31:62 TRACK 08 AUDIO TITLE "Wrathchild" PERFORMER "Iron Maiden" REM COMPOSER "" INDEX 00 27:30:47 INDEX 01 27:30:50 TRACK 09 AUDIO TITLE "Tomorrow Or Yesterday" PERFORMER "Samson" REM COMPOSER "" INDEX 00 30:36:30 INDEX 01 30:40:67 TRACK 10 AUDIO TITLE "Bootliggers" PERFORMER "Nutz" REM COMPOSER "" INDEX 00 36:10:70 INDEX 01 36:12:00
Доп. информация: Сборник явивший миру мало кому известную (в то время) группу Iron Maiden... Хотя, честно говоря, лично я если бы начал своё знакомство с группой с этого сборника, то вряд ли обратил на неё внимание. И запись и исполнение песен ниже среднего (если сравнивать с другими вещами на этом диске)... Таким образом, увольнение барабанщика (Doug Sampson) по причине якобы никудышного здоровья перед самым началом записи первого альбома кажется вполне оправданным и логичным.


[torrentc.info]_t_5406809.torrent
Торрент: Зарегистрирован ·  [ 2017-06-05 22:30 ] ·  249223a2f0f85b0ebaae432a87589208e46923f5

12 KB

Статус: проверено
Скачан: 0 раз
Размер: 281 MB
Оценка: 
(Голосов: 0)
Сказали спасибо: 0  Спасибо
Похожие темы
[Профиль]    [ЛС]
Показать сообщения:    
Ответить на тему

Текущее время: Сегодня 13:28

Часовой пояс: GMT + 7



Вы не можете начинать темы
Вы не можете отвечать на сообщения
Вы не можете редактировать свои сообщения
Вы не можете удалять свои сообщения
Вы не можете голосовать в опросах
Вы не можете прикреплять файлы к сообщениям
Вы можете скачивать файлы