(Vocal Jazz) Nina Simone - Four Women. The Complete Nina Simone On Philips (4CD) - 2003, APE (image+.cue), lossless

Ответить на тему
Статистика раздачи [Обновить пиров]
Размер:  1.34 GB   |    Зарегистрирован:  6 месяцев 12 дней   |    Скачан:  0 раз

Полного источника не было: Никогда

 
   
 
 
 
Автор Сообщение

torrentc.info

Создавать темы 05-Июн-2017 22:32

[Цитировать]

Nina Simone - Four Women. The Complete Nina Simone On Philips (4CD)
Жанр: Vocal Jazz
Год выхода диска: 2003
Аудио кодек: APE
Тип рипа: image+.cue
Битрейт аудио: lossless
Продолжительность: 4:16:05

CD1

Продолжительность: 1:10:39
Трэклист:
01. I Loves You, Porgy (2:34)
02. Plain Gold Ring (6:25)
03. Pirate Jenny (6:40)
04. Old Jim Crow (2:41)
05. Don't Smoke In Bed (5:33)
06. Go Limp (7:07)
07. Mississippi Goddam (4:58)
08. Don't Let Me Be Misunderstood (2:48)
09. Night Song (3:07)
10. The Laziest Gal In Town (2:20)
11. Something Wonderful (2:46)
12. Don't Take All Night (2:55)
13. Nobody (4:20)
14. I'm Blessed (2:58)
15. Of This I'm Sure (2:38)
16. See-Line Woman (2:38)
17. Our Love (Will See Us Through) (3:01)
18. How Can I? (2:07)
19. The Last Rose Of Summer (3:05)

EAC log

Exact Audio Copy V0.99 prebeta 3 from 28. July 2007
EAC extraction logfile from 17. May 2008, 16:16
Nina Simone / Four Women - The Nina Simone Philips Recordings 1
Used drive : LITE-ON LTR-52246S Adapter: 1 ID: 0
Read mode : SecureUtilize accurate stream : YesDefeat audio cache : YesMake use of C2 pointers : No
Read offset correction : 6Overread into Lead-In and Lead-Out : NoFill up missing offset samples with silence : YesDelete leading and trailing silent blocks : NoNull samples used in CRC calculations : NoUsed interface : Installed external ASPI interface
Used output format : Internal WAV RoutinesSample format : 44.100 Hz; 16 Bit; Stereo
TOC of the extracted CD
Track | Start | Length | Start sector | End sector --------------------------------------------------------- 1 | 0:00.00 | 2:33.65 | 0 | 11539 2 | 2:33.65 | 6:24.39 | 11540 | 40378 3 | 8:58.29 | 6:40.27 | 40379 | 70405 4 | 15:38.56 | 2:41.18 | 70406 | 82498 5 | 18:19.74 | 5:32.42 | 82499 | 107440 6 | 23:52.41 | 7:07.30 | 107441 | 139495 7 | 30:59.71 | 4:57.39 | 139496 | 161809 8 | 35:57.35 | 2:48.00 | 161810 | 174409 9 | 38:45.35 | 3:06.57 | 174410 | 188416 10 | 41:52.17 | 2:19.70 | 188417 | 198911 11 | 44:12.12 | 2:46.22 | 198912 | 211383 12 | 46:58.34 | 2:54.63 | 211384 | 224496 13 | 49:53.22 | 4:19.38 | 224497 | 243959 14 | 54:12.60 | 2:57.40 | 243960 | 257274 15 | 57:10.25 | 2:37.60 | 257275 | 269109 16 | 59:48.10 | 2:38.31 | 269110 | 280990 17 | 62:26.41 | 3:01.11 | 280991 | 294576 18 | 65:27.52 | 2:07.24 | 294577 | 304125 19 | 67:35.01 | 3:04.47 | 304126 | 317972
Range status and errors
Selected range
Filename J:\MMT\Nina Simone - Four Women - The Nina Simone Philips Recordings 1.wav
Peak level 99.9 % Range quality 100.0 % Copy CRC 23BAB078 Copy OK
No errors occurred
AccurateRip summary
Track 1 not present in databaseTrack 2 not present in databaseTrack 3 not present in databaseTrack 4 not present in databaseTrack 5 not present in databaseTrack 6 not present in databaseTrack 7 not present in databaseTrack 8 not present in databaseTrack 9 not present in databaseTrack 10 not present in databaseTrack 11 not present in databaseTrack 12 not present in databaseTrack 13 accurately ripped (confidence 4) [78FD597F]Track 14 accurately ripped (confidence 2) [9A52848A]Track 15 not present in databaseTrack 16 not present in databaseTrack 17 not present in databaseTrack 18 not present in databaseTrack 19 not present in database
2 track(s) accurately ripped17 track(s) not present in the AccurateRip database
Some tracks could not be verified as accurate
End of status report

Audiocheker's log

Started at: понедельник, 02. 02. 2009. - 0:26.49
1 file found
1 -===- G:\Downloads\Nina Simone - Four Women. The Complete Nina Simone On Philips (4 cd) (2003)\CD1\Nina Simone - Four Women - The Nina Simone Philips Recordings 1.ape
Extracted successfully
Conclusion: this track is CDDA with probability 100%
Tempfile successfully deleted.
Finished at: понедельник, 02. 02. 2009. - 1:09.24 (operation time: 0:42.34)

Accurip

[Verification date: 01.02.2009 21:17:49]
[Disc ID: 00369d43-02e65074-0c108f13]
Track [ CRC ] Status
01 [e6c088a0] (11/11) Accurately ripped as in pressing(s) #1
02 [6bd8f53a] (11/11) Accurately ripped as in pressing(s) #1
03 [5ebf943e] (11/11) Accurately ripped as in pressing(s) #1
04 [bf4dca59] (12/12) Accurately ripped as in pressing(s) #1
05 [d16a70b0] (11/11) Accurately ripped as in pressing(s) #1
06 [1f9f108b] (11/11) Accurately ripped as in pressing(s) #1
07 [47adce07] (11/11) Accurately ripped as in pressing(s) #1
08 [736a9e33] (12/12) Accurately ripped as in pressing(s) #1
09 [ddeb38f6] (11/11) Accurately ripped as in pressing(s) #1
10 [64373e2e] (11/11) Accurately ripped as in pressing(s) #1
11 [77c0cca2] (12/12) Accurately ripped as in pressing(s) #1
12 [f1c55dce] (12/12) Accurately ripped as in pressing(s) #1
13 [78fd597f] (15/15) Accurately ripped as in pressing(s) #1
14 [9a52848a] (13/13) Accurately ripped as in pressing(s) #1
15 [7695cb83] (10/10) Accurately ripped as in pressing(s) #1
16 [64298abb] (10/10) Accurately ripped as in pressing(s) #1
17 [c1c86bd0] (10/10) Accurately ripped as in pressing(s) #1
18 [6aaed0e8] (09/09) Accurately ripped as in pressing(s) #1
19 [3bbf6728] (10/10) Accurately ripped as in pressing(s) #1
Track [ CRC32 ] [W/O NULL] [ LOG ]
-- [F52D4A44] [23BAB078] W/O NULL
01 [41B3F405] [4A237BB8]
02 [32AF7558] [B789D5BF]
03 [BDBF909F] [9F329467]
04 [0808B3BD] [AC5F3310]
05 [F91C4BFA] [12EC70CF]
06 [97F217A0] [AC043557]
07 [3765BC16] [A46024B9]
08 [5244068A] [9FE50958]
09 [DA55D9B2] [2EF44ABD]
10 [26B6AB8B] [5E99F9E3]
11 [F2A55A09] [B189A5C2]
12 [2FC3A21A] [59CB9E7D]
13 [0F760DA4] [5E3CAFB2]
14 [C9C30C0C] [60ED11BC]
15 [18BFF7FE] [0C78DEE0]
16 [6BB29549] [897F5E5F]
17 [B9193515] [67535FDE]
18 [6B27A23C] [A7C76710]
19 [62B9EDFB] [7ABB29FA]

CD2

Продолжительность: 1:10:19
Трэклист:
01. I Put A Spell On You - I Put A Spell On You (2:37)
02. I Put A Spell On You - Tomorrow Is My Turn (2:53)
03. I Put A Spell On You - Ne Me Quitte Pas (3:39)
04. I Put A Spell On You - Marriage Is For Old Folks (3:34)
05. I Put A Spell On You - July Tree (2:45)
06. I Put A Spell On You - Gimme Some (3:02)
07. I Put A Spell On You - Feeling Good (2:58)
08. I Put A Spell On You - One September Day (2:52)
09. I Put A Spell On You - Blues On Purpose (3:20)
10. I Put A Spell On You - Beatiful Land (1:57)
11. I Put A Spell On You - You've Got To Learn (2:44)
12. I Put A Spell On You - Take Care Of Business (2:06)
13. Pastel Blues - Be My Husband (3:23)
14. Pastel Blues - Nobody Knows You When You're Down And Out (2:41)
15. Pastel Blues - End Of The Line (2:57)
16. Pastel Blues - Trouble In Mind (2:43)
17. Pastel Blues - Tell Me More And More And Then Some (3:11)
18. Pastel Blues - Chill Wind Don't Blow (4:04)
19. Pastel Blues - Aint' No Use (3:03)
20. Pastel Blues - Strange Fruit (3:31)
21. Pastel Blues - Sinnerman (10:20)

EAC log

Exact Audio Copy V0.99 prebeta 3 from 28. July 2007
EAC extraction logfile from 17. May 2008, 14:53
Nina Simone / Four Women - The Nina Simone Philips Recordings - Disc 2
Used drive : LITE-ON LTR-52246S Adapter: 1 ID: 0
Read mode : SecureUtilize accurate stream : YesDefeat audio cache : YesMake use of C2 pointers : No
Read offset correction : 6Overread into Lead-In and Lead-Out : NoFill up missing offset samples with silence : YesDelete leading and trailing silent blocks : NoNull samples used in CRC calculations : NoUsed interface : Installed external ASPI interface
Used output format : Internal WAV RoutinesSample format : 44.100 Hz; 16 Bit; Stereo
TOC of the extracted CD
Track | Start | Length | Start sector | End sector --------------------------------------------------------- 1 | 0:00.00 | 2:37.15 | 0 | 11789 2 | 2:37.15 | 2:52.44 | 11790 | 24733 3 | 5:29.59 | 3:38.43 | 24734 | 41126 4 | 9:08.27 | 3:33.51 | 41127 | 57152 5 | 12:42.03 | 2:44.65 | 57153 | 69517 6 | 15:26.68 | 3:02.07 | 69518 | 83174 7 | 18:29.00 | 2:57.52 | 83175 | 96501 8 | 21:26.52 | 2:51.54 | 96502 | 109380 9 | 24:18.31 | 3:20.25 | 109381 | 124405 10 | 27:38.56 | 1:57.31 | 124406 | 133211 11 | 29:36.12 | 2:44.10 | 133212 | 145521 12 | 32:20.22 | 2:06.15 | 145522 | 154986 13 | 34:26.37 | 3:22.40 | 154987 | 170176 14 | 37:49.02 | 2:41.05 | 170177 | 182256 15 | 40:30.07 | 2:57.14 | 182257 | 195545 16 | 43:27.21 | 2:43.34 | 195546 | 207804 17 | 46:10.55 | 3:10.53 | 207805 | 222107 18 | 49:21.33 | 4:03.41 | 222108 | 240373 19 | 53:24.74 | 3:03.31 | 240374 | 254129 20 | 56:28.30 | 3:31.36 | 254130 | 269990 21 | 59:59.66 | 10:19.38 | 269991 | 316453
Range status and errors
Selected range
Filename J:\MMT\Nina Simone - Four Women - The Nina Simone Philips Recordings - Disc 2.wav
Peak level 100.0 % Range quality 100.0 % Copy CRC 30A6088A Copy OK
No errors occurred
AccurateRip summary
Track 1 accurately ripped (confidence 5) [9943F12F]Track 2 accurately ripped (confidence 4) [BC28C57B]Track 3 accurately ripped (confidence 5) [2D94BA13]Track 4 accurately ripped (confidence 4) [A3FD311C]Track 5 accurately ripped (confidence 4) [FB61143C]Track 6 accurately ripped (confidence 4) [994D2448]Track 7 accurately ripped (confidence 5) [BE697612]Track 8 accurately ripped (confidence 4) [3BAC79CB]Track 9 accurately ripped (confidence 4) [EE18E5F5]Track 10 accurately ripped (confidence 4) [1AAF30C7]Track 11 accurately ripped (confidence 3) [3237B8B0]Track 12 accurately ripped (confidence 3) [B7FE2955]Track 13 accurately ripped (confidence 3) [497EF439]Track 14 accurately ripped (confidence 3) [78E217A5]Track 15 accurately ripped (confidence 3) [B38A9A9A]Track 16 accurately ripped (confidence 3) [91B44678]Track 17 accurately ripped (confidence 3) [BB74DA9D]Track 18 accurately ripped (confidence 3) [EEE96584]Track 19 accurately ripped (confidence 3) [43C9EE5A]Track 20 accurately ripped (confidence 4) [99B95F11]Track 21 accurately ripped (confidence 4) [594ABE26]
All tracks accurately ripped
End of status report

Audiocheker's log

Started at: понедельник, 02. 02. 2009. - 1:16.49
1 file found
1 -===- G:\Downloads\Nina Simone - Four Women. The Complete Nina Simone On Philips (4 cd) (2003)\CD2\Nina Simone - Four Women - The Nina Simone Philips Recordings - Disc 2.ape
Extracted successfully
Conclusion: this track is CDDA with probability 100%
Tempfile successfully deleted.
Finished at: понедельник, 02. 02. 2009. - 2:06.23 (operation time: 0:49.33)

Accurip

[Verification date: 01.02.2009 22:24:28]
[Disc ID: 002f75cd-02d9d9e4-1f107b15]
Track [ CRC ] Status
01 [9943f12f] (16/16) Accurately ripped as in pressing(s) #1
02 [bc28c57b] (15/15) Accurately ripped as in pressing(s) #1
03 [2d94ba13] (17/17) Accurately ripped as in pressing(s) #1
04 [a3fd311c] (15/15) Accurately ripped as in pressing(s) #1
05 [fb61143c] (15/15) Accurately ripped as in pressing(s) #1
06 [994d2448] (16/16) Accurately ripped as in pressing(s) #1
07 [be697612] (16/16) Accurately ripped as in pressing(s) #1
08 [3bac79cb] (15/15) Accurately ripped as in pressing(s) #1
09 [ee18e5f5] (15/15) Accurately ripped as in pressing(s) #1
10 [1aaf30c7] (16/16) Accurately ripped as in pressing(s) #1
11 [3237b8b0] (15/15) Accurately ripped as in pressing(s) #1
12 [b7fe2955] (14/14) Accurately ripped as in pressing(s) #1
13 [497ef439] (15/15) Accurately ripped as in pressing(s) #1
14 [78e217a5] (15/15) Accurately ripped as in pressing(s) #1
15 [b38a9a9a] (14/14) Accurately ripped as in pressing(s) #1
16 [91b44678] (14/14) Accurately ripped as in pressing(s) #1
17 [bb74da9d] (15/15) Accurately ripped as in pressing(s) #1
18 [eee96584] (15/15) Accurately ripped as in pressing(s) #1
19 [43c9ee5a] (15/15) Accurately ripped as in pressing(s) #1
20 [99b95f11] (14/14) Accurately ripped as in pressing(s) #1
21 [594abe26] (14/14) Accurately ripped as in pressing(s) #1
Track [ CRC32 ] [W/O NULL] [ LOG ]
-- [64A458CA] [30A6088A] W/O NULL
01 [E8CD9270] [DC963D71]
02 [0E49ACC8] [0D4D6BDA]
03 [8EAB404C] [95D2170A]
04 [49C59FBB] [69800294]
05 [AB3861CB] [B68111FD]
06 [A99C9247] [795FBA71]
07 [76AFEBD9] [DF7D9591]
08 [69254DEF] [2808EE0C]
09 [B53DDD5C] [5B2B4E62]
10 [318E862E] [468130FE]
11 [85102E93] [9845FEBF]
12 [C37161FC] [03696E8D]
13 [52D8EC70] [B1C82C4B]
14 [3F508C34] [30A24D08]
15 [9F521F15] [7EDC6A0C]
16 [43E7481D] [2278E963]
17 [376ED124] [99668AA3]
18 [F7EA0AD0] [519B081F]
19 [99BDAB0D] [DC1AA5B5]
20 [04A8F897] [FBE878EF]
21 [66C5E578] [975D5579]

CD3

Продолжительность: 1:16:31
Трэклист:
01. Let It All Out - Mood Indigo (2:30)
02. Let It All Out - The Other Woman (3:06)
03. Let It All Out - Love Me Or Leave Me (4:09)
04. Let It All Out - Don't Explain (4:23)
05. Let It All Out - Little Girl Blue (2:36)
06. Let It All Out - Chauffer (2:51)
07. Let It All Out - For Myself (2:09)
08. Let It All Out - The Ballad Of Hollis Brown (4:58)
09. Let It All Out - This Year's Kisses (3:02)
10. Let It All Out - Images (2:54)
11. Let It All Out - Nearer Blessed Lord (4:34)
12. Wild Is The Wind - I Love Your Lovin' Ways (2:39)
13. Wild Is The Wind - Four Women (4:29)
14. Wild Is The Wind - What More Can I Say (2:53)
15. Wild Is The Wind - Lilac Wine (4:17)
16. Wild Is The Wind - That's All I Ask (2:32)
17. Wild Is The Wind - Break Down And Let It All Out (2:41)
18. Wild Is The Wind - Why Keep On Breaking My Heart (2:38)
19. Wild Is The Wind - Wild Is The Wind (7:00)
20. Wild Is The Wind - Black Is The Color Of My True Love's Hair (3:28)
21. Wild Is The Wind - If I Should Lose You (3:59)
22. Wild Is The Wind - Either Way I Lose (2:43)

EAC log

Exact Audio Copy V0.99 prebeta 3 from 28. July 2007
EAC extraction logfile from 17. May 2008, 13:28
Nina Simone / Four Women: The Nina Simone Philips Recordings (CD1 Of 4) (CD 3/4)
Used drive : LITE-ON LTR-52246S Adapter: 1 ID: 0
Read mode : SecureUtilize accurate stream : YesDefeat audio cache : YesMake use of C2 pointers : No
Read offset correction : 6Overread into Lead-In and Lead-Out : NoFill up missing offset samples with silence : YesDelete leading and trailing silent blocks : NoNull samples used in CRC calculations : NoUsed interface : Installed external ASPI interface
Used output format : Internal WAV RoutinesSample format : 44.100 Hz; 16 Bit; Stereo
TOC of the extracted CD
Track | Start | Length | Start sector | End sector --------------------------------------------------------- 1 | 0:00.00 | 2:29.39 | 0 | 11213 2 | 2:29.39 | 3:06.07 | 11214 | 25170 3 | 5:35.46 | 4:08.70 | 25171 | 43840 4 | 9:44.41 | 4:22.53 | 43841 | 63543 5 | 14:07.19 | 2:35.66 | 63544 | 75234 6 | 16:43.10 | 2:51.30 | 75235 | 88089 7 | 19:34.40 | 2:08.51 | 88090 | 97740 8 | 21:43.16 | 4:58.28 | 97741 | 120118 9 | 26:41.44 | 3:02.32 | 120119 | 133800 10 | 29:44.01 | 2:54.32 | 133801 | 146882 11 | 32:38.33 | 4:33.69 | 146883 | 167426 12 | 37:12.27 | 2:39.32 | 167427 | 179383 13 | 39:51.59 | 4:28.68 | 179384 | 199551 14 | 44:20.52 | 2:52.71 | 199552 | 212522 15 | 47:13.48 | 4:16.68 | 212523 | 231790 16 | 51:30.41 | 2:31.43 | 231791 | 243158 17 | 54:02.09 | 2:41.20 | 243159 | 255253 18 | 56:43.29 | 2:37.44 | 255254 | 267072 19 | 59:20.73 | 7:00.01 | 267073 | 298573 20 | 66:20.74 | 3:28.18 | 298574 | 314191 21 | 69:49.17 | 3:58.57 | 314192 | 332098 22 | 73:47.74 | 2:43.07 | 332099 | 344330
Range status and errors
Selected range
Filename J:\MMT\Nina Simone - Four Women The Nina Simone Philips Recordings (CD1 Of 4) (CD 3 4).wav
Peak level 100.0 % Range quality 100.0 % Copy CRC A1CE39DA Copy OK
No errors occurred
AccurateRip summary
Track 1 cannot be verified as accurate (confidence 4) [8C907B2D], AccurateRip returned [46378CFD]Track 2 cannot be verified as accurate (confidence 4) [666C01D2], AccurateRip returned [48A56902]Track 3 cannot be verified as accurate (confidence 4) [7958D75B], AccurateRip returned [EF49F513]Track 4 cannot be verified as accurate (confidence 4) [49DD14A2], AccurateRip returned [34D2190A]Track 5 cannot be verified as accurate (confidence 4) [D4117841], AccurateRip returned [AED38155]Track 6 cannot be verified as accurate (confidence 4) [1C66FFCC], AccurateRip returned [8C54A9A0]Track 7 cannot be verified as accurate (confidence 4) [0EDCC369], AccurateRip returned [CD118005]Track 8 cannot be verified as accurate (confidence 4) [C72BA0D1], AccurateRip returned [90A2BD05]Track 9 cannot be verified as accurate (confidence 4) [781C4C58], AccurateRip returned [1831A1F8]Track 10 cannot be verified as accurate (confidence 4) [F78649EE], AccurateRip returned [C69CC536]Track 11 cannot be verified as accurate (confidence 4) [BC1BC30F], AccurateRip returned [9EE8FD0F]Track 12 cannot be verified as accurate (confidence 4) [82DF10B1], AccurateRip returned [7A0CFCED]Track 13 cannot be verified as accurate (confidence 4) [B6F47B98], AccurateRip returned [3B286650]Track 14 cannot be verified as accurate (confidence 4) [4DAE1184], AccurateRip returned [AFE89CD4]Track 15 cannot be verified as accurate (confidence 4) [6866855A], AccurateRip returned [DD230AAA]Track 16 cannot be verified as accurate (confidence 4) [05D9DD1E], AccurateRip returned [5DDD2082]Track 17 cannot be verified as accurate (confidence 4) [01886ACF], AccurateRip returned [DEFA1FF3]Track 18 cannot be verified as accurate (confidence 4) [D78E45B4], AccurateRip returned [B8D7350C]Track 19 cannot be verified as accurate (confidence 4) [2861B994], AccurateRip returned [356F4B90]Track 20 cannot be verified as accurate (confidence 4) [3B238740], AccurateRip returned [0485D75C]Track 21 cannot be verified as accurate (confidence 4) [EDE93A16], AccurateRip returned [64552756]Track 22 cannot be verified as accurate (confidence 3) [2DB2C40A], AccurateRip returned [A3EA5056]
No tracks could be verified as accurateYou may have a different pressing from the one(s) in the database
End of status report

Audiocheker's log

Started at: понедельник, 02. 02. 2009. - 2:08.44
1 file found
1 -===- G:\Downloads\Nina Simone - Four Women. The Complete Nina Simone On Philips (4 cd) (2003)\CD3\Nina Simone - Four Women The Nina Simone Philips Recordings (CD1 Of 4) (CD 3 4).ape
Extracted successfully
Conclusion: this track is CDDA with probability 100%
Tempfile successfully deleted.
Finished at: понедельник, 02. 02. 2009. - 2:57.12 (operation time: 0:48.28)

Accurip

[Verification date: 01.02.2009 23:00:41]
[Disc ID: 003ac2f6-03b3a60a-3a11ef16]
Track [ CRC ] Status
01 [8c907b2d] (04/15) Accurately ripped as in pressing(s) #2
02 [666c01d2] (03/14) Accurately ripped as in pressing(s) #2
03 [7958d75b] (04/15) Accurately ripped as in pressing(s) #2
04 [49dd14a2] (03/14) Accurately ripped as in pressing(s) #2
05 [d4117841] (04/15) Accurately ripped as in pressing(s) #2
06 [1c66ffcc] (04/15) Accurately ripped as in pressing(s) #2
07 [0edcc369] (04/15) Accurately ripped as in pressing(s) #2
08 [c72ba0d1] (03/14) Accurately ripped as in pressing(s) #2
09 [781c4c58] (03/14) Accurately ripped as in pressing(s) #2
10 [f78649ee] (03/14) Accurately ripped as in pressing(s) #2
11 [bc1bc30f] (03/14) Accurately ripped as in pressing(s) #2
12 [82df10b1] (03/14) Accurately ripped as in pressing(s) #2
13 [b6f47b98] (03/14) Accurately ripped as in pressing(s) #2
14 [4dae1184] (03/14) Accurately ripped as in pressing(s) #2
15 [6866855a] (03/14) Accurately ripped as in pressing(s) #2
16 [05d9dd1e] (03/14) Accurately ripped as in pressing(s) #2
17 [01886acf] (03/14) Accurately ripped as in pressing(s) #2
18 [d78e45b4] (03/14) Accurately ripped as in pressing(s) #2
19 [2861b994] (03/14) Accurately ripped as in pressing(s) #2
20 [3b238740] (02/13) Accurately ripped as in pressing(s) #2
21 [ede93a16] (03/13) Accurately ripped as in pressing(s) #2
22 [2db2c40a] (02/11) Accurately ripped as in pressing(s) #2
Offsetted by 308:
01 [46378cfd] (11/15) Accurately ripped as in pressing(s) #1
02 [48a56902] (11/14) Accurately ripped as in pressing(s) #1
03 [d75fe21f] (11/15) Partial match to pressing(s) #1
04 [34d2190a] (11/14) Accurately ripped as in pressing(s) #1
05 [aed38155] (11/15) Accurately ripped as in pressing(s) #1
06 [8c54a9a0] (11/15) Accurately ripped as in pressing(s) #1
07 [cd118005] (11/15) Accurately ripped as in pressing(s) #1
08 [90a2bd05] (11/14) Accurately ripped as in pressing(s) #1
09 [1831a1f8] (11/14) Accurately ripped as in pressing(s) #1
10 [c69cc536] (11/14) Accurately ripped as in pressing(s) #1
11 [9ee8fd0f] (11/14) Accurately ripped as in pressing(s) #1
12 [7a0cfced] (11/14) Accurately ripped as in pressing(s) #1
13 [3b286650] (11/14) Accurately ripped as in pressing(s) #1
14 [afe89cd4] (11/14) Accurately ripped as in pressing(s) #1
15 [dd230aaa] (11/14) Accurately ripped as in pressing(s) #1
16 [5ddd2082] (11/14) Accurately ripped as in pressing(s) #1
17 [defa1ff3] (11/14) Accurately ripped as in pressing(s) #1
18 [b8d7350c] (11/14) Accurately ripped as in pressing(s) #1
19 [356f4b90] (11/14) Accurately ripped as in pressing(s) #1
20 [0485d75c] (11/13) Accurately ripped as in pressing(s) #1
21 [64552756] (10/13) Accurately ripped as in pressing(s) #1
22 [a3ea5056] (09/11) Accurately ripped as in pressing(s) #1
Track [ CRC32 ] [W/O NULL] [ LOG ]
-- [A73252B8] [A1CE39DA] W/O NULL
01 [D4ED2B44] [5B8B6C1E]
02 [CF71C43F] [447E1AD3]
03 [84028D79] [DD7EDB32]
04 [604F4B4C] [ECCB224D]
05 [881BD1EC] [67079CE7]
06 [F9AA3E7B] [20B8D618]
07 [B756BE7E] [D8CD5808]
08 [2BA4B976] [D26620D8]
09 [D8EB4469] [1BD012A4]
10 [FCFF26DA] [2F0B57FA]
11 [8D64CC6D] [3EA1555B]
12 [EB198195] [1A3DF292]
13 [B78263EF] [857A671D]
14 [F7DDDDAA] [84B4EE44]
15 [70FB47B6] [69842BE7]
16 [1E30CF44] [816519AA]
17 [4184F6B5] [5F8F79FF]
18 [472CE711] [D8FBD977]
19 [4D821CF2] [CDB99E0C]
20 [E0B035C5] [ABE6A9B3]
21 [DB5877BE] [091DFB08]
22 [1A92C641] [FE91EB72]

CD4

Продолжительность: 0:38:35
Трэклист:
01. High Priestess Of Soul - Don't You Pay Them No Mind (3:09)
02. High Priestess Of Soul - I'm Gonna Leave You (2:19)
03. High Priestess Of Soul - Brown Eyed Handsome Man (2:06)
04. High Priestess Of Soul - Keeper Of The Flame (3:26)
05. High Priestess Of Soul - The Gal From Joe's (2:48)
06. High Priestess Of Soul - Take Me To The Water (2:49)
07. High Priestess Of Soul - I'm Going Back Home (2:51)
08. High Priestess Of Soul - I Hold No Grudge (2:22)
09. High Priestess Of Soul - Come Ye (3:39)
10. High Priestess Of Soul - He Ain't Comin' Home No More (3:10)
11. High Priestess Of Soul - Work Song (3:07)
12. High Priestess Of Soul - I Love My Baby (4:04)
13. High Priestess Of Soul - A Monster (2:44)

EAC log

Exact Audio Copy V0.99 prebeta 3 from 28. July 2007
EAC extraction logfile from 17. May 2008, 14:02
Nina Simone / Four Women: The Nina Simone Philips Recordings (CD1 Of 4) (CD 4/4)
Used drive : LITE-ON LTR-52246S Adapter: 1 ID: 0
Read mode : SecureUtilize accurate stream : YesDefeat audio cache : YesMake use of C2 pointers : No
Read offset correction : 6Overread into Lead-In and Lead-Out : NoFill up missing offset samples with silence : YesDelete leading and trailing silent blocks : NoNull samples used in CRC calculations : NoUsed interface : Installed external ASPI interface
Used output format : Internal WAV RoutinesSample format : 44.100 Hz; 16 Bit; Stereo
TOC of the extracted CD
Track | Start | Length | Start sector | End sector --------------------------------------------------------- 1 | 0:00.00 | 3:09.03 | 0 | 14177 2 | 3:09.03 | 2:19.33 | 14178 | 24635 3 | 5:28.36 | 2:06.22 | 24636 | 34107 4 | 7:34.58 | 3:26.14 | 34108 | 49571 5 | 11:00.72 | 2:48.14 | 49572 | 62185 6 | 13:49.11 | 2:49.02 | 62186 | 74862 7 | 16:38.13 | 2:50.70 | 74863 | 87682 8 | 19:29.08 | 2:21.70 | 87683 | 98327 9 | 21:51.03 | 3:39.24 | 98328 | 114776 10 | 25:30.27 | 3:10.28 | 114777 | 129054 11 | 28:40.55 | 3:07.09 | 129055 | 143088 12 | 31:47.64 | 4:04.17 | 143089 | 161405 13 | 35:52.06 | 2:43.55 | 161406 | 173685
Range status and errors
Selected range
Filename J:\MMT\Nina Simone - Four Women The Nina Simone Philips Recordings (CD1 Of 4) (CD 4 4).wav
Peak level 100.0 % Range quality 99.9 % Copy CRC DA11632C Copy OK
No errors occurred
AccurateRip summary
Track 1 accurately ripped (confidence 6) [1EA22381]Track 2 accurately ripped (confidence 4) [DF03205E]Track 3 accurately ripped (confidence 6) [EC03C2A9]Track 4 accurately ripped (confidence 6) [D0EA85AD]Track 5 accurately ripped (confidence 6) [EBA10E92]Track 6 accurately ripped (confidence 6) [1315CD8A]Track 7 accurately ripped (confidence 6) [DB9F555E]Track 8 accurately ripped (confidence 6) [08B6526F]Track 9 accurately ripped (confidence 5) [DF3CBA41]Track 10 accurately ripped (confidence 5) [96163239]Track 11 accurately ripped (confidence 6) [1D3843B9]Track 12 accurately ripped (confidence 6) [45C98C9B]Track 13 accurately ripped (confidence 6) [C541DD1C]
All tracks accurately ripped
End of status report

Audiocheker's log

Started at: понедельник, 02. 02. 2009. - 3:34.02
1 file found
1 -===- G:\Downloads\Nina Simone - Four Women. The Complete Nina Simone On Philips (4 cd) (2003)\CD4\Nina Simone - Four Women The Nina Simone Philips Recordings (CD1 Of 4) (CD 4 4).ape
Extracted successfully
Conclusion: this track is CDDA with probability 100%
Tempfile successfully deleted.
Finished at: понедельник, 02. 02. 2009. - 3:55.30 (operation time: 0:21.28)

Accurip

[Verification date: 01.02.2009 23:22:29]
[Disc ID: 0011d0cf-00b3d107-85090b0d]
Track [ CRC ] Status
01 [1ea22381] (13/17) Accurately ripped as in pressing(s) #1
02 [df03205e] (12/16) Accurately ripped as in pressing(s) #1
03 [ec03c2a9] (14/18) Accurately ripped as in pressing(s) #1
04 [d0ea85ad] (13/17) Accurately ripped as in pressing(s) #1
05 [eba10e92] (13/17) Accurately ripped as in pressing(s) #1
06 [1315cd8a] (13/17) Accurately ripped as in pressing(s) #1
07 [db9f555e] (13/17) Accurately ripped as in pressing(s) #1
08 [08b6526f] (13/17) Accurately ripped as in pressing(s) #1
09 [df3cba41] (12/16) Accurately ripped as in pressing(s) #1
10 [96163239] (12/16) Accurately ripped as in pressing(s) #1
11 [1d3843b9] (13/17) Accurately ripped as in pressing(s) #1
12 [45c98c9b] (13/17) Accurately ripped as in pressing(s) #1
13 [c541dd1c] (13/17) Accurately ripped as in pressing(s) #1
Offsetted by -674:
01 [5f28c543] (04/17) Accurately ripped as in pressing(s) #2
02 [880809ba] (04/16) Accurately ripped as in pressing(s) #2
03 [9c10459a] (04/18) Accurately ripped as in pressing(s) #2
04 [c02e3f3c] (04/17) Accurately ripped as in pressing(s) #2
05 [dc562ffa] (04/17) Accurately ripped as in pressing(s) #2
06 [687d07eb] (04/17) Accurately ripped as in pressing(s) #2
07 [b1141953] (04/17) Accurately ripped as in pressing(s) #2
08 [06064345] (04/17) Accurately ripped as in pressing(s) #2
09 [155e1d1b] (04/16) Accurately ripped as in pressing(s) #2
10 [949c7bcf] (04/16) Accurately ripped as in pressing(s) #2
11 [ebaf6527] (04/17) Accurately ripped as in pressing(s) #2
12 [4a411fcb] (04/17) Accurately ripped as in pressing(s) #2
13 [5c74f8be] (04/17) Accurately ripped as in pressing(s) #2
Track [ CRC32 ] [W/O NULL] [ LOG ]
-- [8CFE7768] [DA11632C] W/O NULL
01 [A8C5A050] [1008F92E]
02 [F07CA54C] [0FCA1401]
03 [5564A867] [1B36E2D5]
04 [93A3D12E] [DD18C05D]
05 [6511B88D] [35F577BA]
06 [0AC6B28C] [CFFEC378]
07 [AB59B8AE] [5ED88FCA]
08 [6C026CF7] [F20B019A]
09 [3551D540] [2D2D3233]
10 [EFF5D81D] [1DBDDD7C]
11 [623BADDC] [8F065CE9]
12 [5D3322A7] [595C8521]
13 [2C7E11EC] [16C726EA]
Доп. информация:
Источник - ослосеть. Сканов нет. ер - frafra64.
Внимание! Торрент-файл перезалит без изменения содержимого раздачи в связи с просьбой администрации снять флаг "Приватная раздача". Скачавшим ранее просьба перекачать торрент-файл, перехешировать содержимое и присоединиться к раздаче.

[torrentc.info]_t_1521491.torrent
Торрент: Зарегистрирован ·  [ 2017-06-05 22:30 ] ·  1de7940f14081f0ac66e230115c0bdd51c4e5e4a

16 KB

Статус: проверено
Скачан: 0 раз
Размер: 1.34 GB
Оценка: 
(Голосов: 0)
Сказали спасибо: 0  Спасибо
Похожие темы
[Профиль]    [ЛС]
Показать сообщения:    
Ответить на тему

Текущее время: Сегодня 13:46

Часовой пояс: GMT + 7



Вы не можете начинать темы
Вы не можете отвечать на сообщения
Вы не можете редактировать свои сообщения
Вы не можете удалять свои сообщения
Вы не можете голосовать в опросах
Вы не можете прикреплять файлы к сообщениям
Вы можете скачивать файлы