(Vocal Jazz) Nina Simone - At the Village Gate - 1961, FLAC (tracks+.cue), lossless

Ответить на тему
Статистика раздачи [Обновить пиров]
Размер:  237 MB   |    Зарегистрирован:  6 месяцев 12 дней   |    Скачан:  0 раз

Полного источника не было: Никогда

 
   
 
 
 
Автор Сообщение

torrentc.info

Создавать темы 05-Июн-2017 22:32

[Цитировать]

Nina Simone - At the Village Gate
Жанр: Vocal Jazz
Год выхода диска: 1961
Аудио кодек: FLAC
Тип рипа: tracks+.cue
Битрейт аудио: lossless
Продолжительность: 0:38:26
Трэклист:
01. Just In Time (6:36)
02. He Was Too Good To Me (5:02)
03. House Of The Rising Sun (4:30)
04. Bye Bye Blackbird (8:16)
05. Brown Baby (5:49)
06. Zungo (3:01)
07. If He Changed My Name (4:00)
08. Children Go Where I Send You (7:48)

EAC log

Exact Audio Copy V0.99 prebeta 3 from 28. July 2007
EAC extraction logfile from 14. August 2009, 18:17
Nina Simone / At The Village Gate (Live)
Used drive : SlimtypeDVD A DS8A1P Adapter: 1 ID: 0
Read mode : SecureUtilize accurate stream : YesDefeat audio cache : YesMake use of C2 pointers : No
Read offset correction : 594Overread into Lead-In and Lead-Out : NoFill up missing offset samples with silence : YesDelete leading and trailing silent blocks : NoNull samples used in CRC calculations : NoUsed interface : Native Win32 interface for Win NT & 2000Gap handling : Appended to previous track
Used output format : User Defined EncoderSelected bitrate : 768 kBit/sQuality : HighAdd ID3 tag : NoCommand line compressor : C:\Program Files\Exact Audio Copy\FLAC\FLAC.EXEAdditional command line options : -6 -V -T "ARTIST=%a" -T "TITLE=%t" -T "ALBUM=%g" -T "DATE=%y" -T "TRACKNUMBER=%n" -T "GENRE=%m" -T "COMMENT=%e" %s -o %d
TOC of the extracted CD
Track | Start | Length | Start sector | End sector --------------------------------------------------------- 1 | 0:00.00 | 6:36.30 | 0 | 29729 2 | 6:36.30 | 5:02.32 | 29730 | 52411 3 | 11:38.62 | 4:29.53 | 52412 | 72639 4 | 16:08.40 | 8:16.37 | 72640 | 109876 5 | 24:25.02 | 5:48.58 | 109877 | 136034 6 | 30:13.60 | 3:00.72 | 136035 | 149606 7 | 33:14.57 | 3:59.65 | 149607 | 167596 8 | 37:14.47 | 7:48.15 | 167597 | 202711
Track 1
Filename C:\Users\-C-\Desktop\Nina Simone - 1961 - At the Village Gate (FLAC)\01 - Just In Time.wav
Pre-gap length 0:00:02.00
Peak level 92.4 % Track quality 100.0 % Test CRC 3AED19A4 Copy CRC 3AED19A4 Accurately ripped (confidence 5) [6D12F6D8] Copy OK
Track 2
Filename C:\Users\-C-\Desktop\Nina Simone - 1961 - At the Village Gate (FLAC)\02 - He Was Too Good To Me.wav
Peak level 66.9 % Track quality 100.0 % Test CRC 43067042 Copy CRC 43067042 Accurately ripped (confidence 5) [6681973B] Copy OK
Track 3
Filename C:\Users\-C-\Desktop\Nina Simone - 1961 - At the Village Gate (FLAC)\03 - House Of The Rising Sun.wav
Peak level 72.9 % Track quality 100.0 % Test CRC DEAC8566 Copy CRC DEAC8566 Accurately ripped (confidence 5) [2444D4C2] Copy OK
Track 4
Filename C:\Users\-C-\Desktop\Nina Simone - 1961 - At the Village Gate (FLAC)\04 - Bye Bye Blackbird.wav
Peak level 78.6 % Track quality 100.0 % Test CRC 45F08B15 Copy CRC 45F08B15 Accurately ripped (confidence 5) [1D1EFBE6] Copy OK
Track 5
Filename C:\Users\-C-\Desktop\Nina Simone - 1961 - At the Village Gate (FLAC)\05 - Brown Baby.wav
Pre-gap length 0:00:00.01
Peak level 41.9 % Track quality 100.0 % Test CRC 58A64FE7 Copy CRC 58A64FE7 Accurately ripped (confidence 5) [8136B826] Copy OK
Track 6
Filename C:\Users\-C-\Desktop\Nina Simone - 1961 - At the Village Gate (FLAC)\06 - Zungo.wav
Peak level 54.4 % Track quality 99.9 % Test CRC F535BFFC Copy CRC F535BFFC Accurately ripped (confidence 5) [E7F09DD5] Copy OK
Track 7
Filename C:\Users\-C-\Desktop\Nina Simone - 1961 - At the Village Gate (FLAC)\07 - If He Changed My Name.wav
Peak level 43.3 % Track quality 100.0 % Test CRC B6FE7105 Copy CRC B6FE7105 Accurately ripped (confidence 5) [AC8F7A3E] Copy OK
Track 8
Filename C:\Users\-C-\Desktop\Nina Simone - 1961 - At the Village Gate (FLAC)\08 - Children Go Where I Send You.wav
Peak level 61.8 % Track quality 99.9 % Test CRC D435DB65 Copy CRC D435DB65 Accurately ripped (confidence 5) [0CFADAF0] Copy OK
All tracks accurately ripped
No errors occurred
End of status report

Audiocheker's log

Started at: воскресенье, 16. 08. 2009. - 0:02.26
8 files found
1 -===- G:\Downloads\Nina Simone - 1961 - At the Village Gate (FLAC)\01 - Just In Time.flac
Extracted successfully
Conclusion: this track is CDDA with probability 100%
Tempfile successfully deleted.
2 -===- G:\Downloads\Nina Simone - 1961 - At the Village Gate (FLAC)\02 - He Was Too Good To Me.flac
Extracted successfully
Conclusion: this track is CDDA with probability 100%
Tempfile successfully deleted.
3 -===- G:\Downloads\Nina Simone - 1961 - At the Village Gate (FLAC)\03 - House Of The Rising Sun.flac
Extracted successfully
Conclusion: this track is CDDA with probability 100%
Tempfile successfully deleted.
4 -===- G:\Downloads\Nina Simone - 1961 - At the Village Gate (FLAC)\04 - Bye Bye Blackbird.flac
Extracted successfully
Conclusion: this track is CDDA with probability 100%
Tempfile successfully deleted.
5 -===- G:\Downloads\Nina Simone - 1961 - At the Village Gate (FLAC)\05 - Brown Baby.flac
Extracted successfully
Conclusion: this track is CDDA with probability 100%
Tempfile successfully deleted.
6 -===- G:\Downloads\Nina Simone - 1961 - At the Village Gate (FLAC)\06 - Zungo.flac
Extracted successfully
Conclusion: this track is CDDA with probability 100%
Tempfile successfully deleted.
7 -===- G:\Downloads\Nina Simone - 1961 - At the Village Gate (FLAC)\07 - If He Changed My Name.flac
Extracted successfully
Conclusion: this track is CDDA with probability 100%
Tempfile successfully deleted.
8 -===- G:\Downloads\Nina Simone - 1961 - At the Village Gate (FLAC)\08 - Children Go Where I Send You.flac
Extracted successfully
Conclusion: this track is CDDA with probability 99%
Tempfile successfully deleted.
Finished at: воскресенье, 16. 08. 2009. - 0:14.46 (operation time: 0:12.20)

.cue

REM DATE 1961
REM DISCID 740A8E08
REM COMMENT "ExactAudioCopy v0.99pb3"
PERFORMER "Nina Simone"
TITLE "At The Village Gate (Live)"
FILE "01 - Just In Time.wav" WAVE
TRACK 01 AUDIO
TITLE "Just In Time"
PERFORMER "Nina Simone"
INDEX 01 00:00:00
FILE "02 - He Was Too Good To Me.wav" WAVE
TRACK 02 AUDIO
TITLE "He Was Too Good To Me"
PERFORMER "Nina Simone"
INDEX 01 00:00:00
FILE "03 - House Of The Rising Sun.wav" WAVE
TRACK 03 AUDIO
TITLE "House Of The Rising Sun"
PERFORMER "Nina Simone"
INDEX 01 00:00:00
FILE "04 - Bye Bye Blackbird.wav" WAVE
TRACK 04 AUDIO
TITLE "Bye Bye Blackbird"
PERFORMER "Nina Simone"
INDEX 01 00:00:00
TRACK 05 AUDIO
TITLE "Brown Baby"
PERFORMER "Nina Simone"
INDEX 00 08:16:36
FILE "05 - Brown Baby.wav" WAVE
INDEX 01 00:00:00
FILE "06 - Zungo.wav" WAVE
TRACK 06 AUDIO
TITLE "Zungo"
PERFORMER "Nina Simone"
INDEX 01 00:00:00
FILE "07 - If He Changed My Name.wav" WAVE
TRACK 07 AUDIO
TITLE "If He Changed My Name"
PERFORMER "Nina Simone"
INDEX 01 00:00:00
FILE "08 - Children Go Where I Send You.wav" WAVE
TRACK 08 AUDIO
TITLE "Children Go Where I Send You"
PERFORMER "Nina Simone"
INDEX 01 00:00:00

Log Accurip

[Verification date: 16.08.2009 0:22:03][Disc ID: 000e0c22-005cdaa5-740a8e08]Track [ CRC ] Status 01 [6d12f6d8] (05/07) Accurately ripped as in pressing(s) #1 02 [6681973b] (05/07) Accurately ripped as in pressing(s) #1 03 [2444d4c2] (05/07) Accurately ripped as in pressing(s) #1 04 [1d1efbe6] (05/07) Accurately ripped as in pressing(s) #1 05 [8136b826] (05/07) Accurately ripped as in pressing(s) #1 06 [e7f09dd5] (05/07) Accurately ripped as in pressing(s) #1 07 [ac8f7a3e] (05/07) Accurately ripped as in pressing(s) #1 08 [0cfadaf0] (05/07) Accurately ripped as in pressing(s) #1Offsetted by 667: 01 [5d42e0bf] (02/07) Accurately ripped as in pressing(s) #2 02 [87907238] (02/07) Accurately ripped as in pressing(s) #2 03 [a033b4d2] (02/07) Accurately ripped as in pressing(s) #2 04 [0793d331] (02/07) Accurately ripped as in pressing(s) #2 05 [7f699312] (02/07) Accurately ripped as in pressing(s) #2 06 [305592b0] (02/07) Accurately ripped as in pressing(s) #2 07 [55b7c878] (02/07) Accurately ripped as in pressing(s) #2 08 [32714bab] (02/07) Accurately ripped as in pressing(s) #2
Track [ CRC32 ] [W/O NULL] [ LOG ] -- [32AB9526] [9615ED3E] 01 [354F7BD5] [3AED19A4] W/O NULL 02 [B4264FEC] [43067042] W/O NULL 03 [C555C9E7] [DEAC8566] W/O NULL 04 [0CB23160] [45F08B15] W/O NULL 05 [CBED5CE9] [58A64FE7] W/O NULL 06 [65FF455A] [F535BFFC] W/O NULL 07 [A5F82517] [B6FE7105] W/O NULL 08 [97B99013] [D435DB65] W/O NULL
Доп. информация: Источник - другой трекер. ер - GatsBestFriend. Сканов не было, добавлено найденное в сети.
Внимание! Торрент-файл перезалит без изменения содержимого раздачи в связи с просьбой администрации снять флаг "Приватная раздача". Скачавшим ранее просьба перекачать торрент-файл, перехешировать содержимое и присоединиться к раздаче.

[torrentc.info]_t_2110728.torrent
Торрент: Зарегистрирован ·  [ 2017-06-05 22:30 ] ·  32a42adb6bced319a5c72f1acd842cd72bd99b13

20 KB

Статус: проверено
Скачан: 0 раз
Размер: 237 MB
Оценка: 
(Голосов: 0)
Сказали спасибо: 0  Спасибо
Похожие темы
[Профиль]    [ЛС]
Показать сообщения:    
Ответить на тему

Текущее время: Сегодня 13:59

Часовой пояс: GMT + 7



Вы не можете начинать темы
Вы не можете отвечать на сообщения
Вы не можете редактировать свои сообщения
Вы не можете удалять свои сообщения
Вы не можете голосовать в опросах
Вы не можете прикреплять файлы к сообщениям
Вы можете скачивать файлы