(Vocal Jazz) Nina Simone - My Babe Cat - 1990, FLAC (tracks+.cue), lossless

Ответить на тему
Статистика раздачи [Обновить пиров]
Размер:  346 MB   |    Зарегистрирован:  6 месяцев 12 дней   |    Скачан:  0 раз

Полного источника не было: Никогда

 
   
 
 
 
Автор Сообщение

torrentc.info

Создавать темы 05-Июн-2017 22:32

[Цитировать]

Nina Simone - My Babe Cat
Жанр: Vocal Jazz
Год выхода диска: 1990
Аудио кодек: FLAC
Тип рипа: tracks+.cue
Битрейт аудио: lossless
Продолжительность: 1:06:09
Трэклист:
01. Do what you gotta do (4:08)
02. Mississippi Goddamn (4:50)
03. See lime woman (5:33)
04. Other woman (4:13)
05. Four woman (4:50)
06. I'm singing just to know I'm alive (3:48)
07. You must have another lover (4:31)
08. Touching and caring (5:35)
09. It's cold out there (5:33)
10. Porgy (4:59)
11. Pirate Jenny (4:52)
12. For a while (5:43)
13. You took my teeth (1:09)
14. I want a little sugar in my bowl (3:38)
15. Backlash blues (2:48)

EAC log

Exact Audio Copy V0.99 prebeta 4 from 23. January 2008
EAC extraction logfile from 13. May 2009, 17:16
Nina Simone / My Babe Cat
Used drive : TSSTcorpCD/DVDW SH-S162A Adapter: 0 ID: 0
Read mode : SecureUtilize accurate stream : YesDefeat audio cache : YesMake use of C2 pointers : No
Read offset correction : 48Overread into Lead-In and Lead-Out : NoFill up missing offset samples with silence : YesDelete leading and trailing silent blocks : NoNull samples used in CRC calculations : YesUsed interface : Native Win32 interface for Win NT & 2000Gap handling : Appended to previous track
Used output format : User Defined EncoderSelected bitrate : 128 kBit/sQuality : HighAdd ID3 tag : NoCommand line compressor : C:\audio\Exact Audio Copy\Flac\flac.exeAdditional command line options : -V -8 -T "artist=%a" -T "title=%t" -T "album=%g" -T "date=%y" -T "tracknumber=%n" -T "genre=%m" %s
TOC of the extracted CD
Track | Start | Length | Start sector | End sector --------------------------------------------------------- 1 | 0:00.32 | 4:07.53 | 32 | 18609 2 | 4:08.10 | 4:49.70 | 18610 | 40354 3 | 8:58.05 | 5:32.67 | 40355 | 65321 4 | 14:30.72 | 4:12.73 | 65322 | 84294 5 | 18:43.70 | 4:49.65 | 84295 | 106034 6 | 23:33.60 | 3:48.12 | 106035 | 123146 7 | 27:21.72 | 4:30.55 | 123147 | 143451 8 | 31:52.52 | 5:35.05 | 143452 | 168581 9 | 37:27.57 | 5:33.13 | 168582 | 193569 10 | 43:00.70 | 4:59.17 | 193570 | 216011 11 | 48:00.12 | 4:52.20 | 216012 | 237931 12 | 52:52.32 | 5:42.40 | 237932 | 263621 13 | 58:34.72 | 1:09.10 | 263622 | 268806 14 | 59:44.07 | 3:37.53 | 268807 | 285134 15 | 63:21.60 | 2:48.15 | 285135 | 297749
Track 1
Filename C:\audio\FLAC\!\Nina Simone-1990-My Babe Cat\Nina Simone-1990-My Babe Cat-01-Do what you gotta do.wav
Pre-gap length 0:00:02.42
Peak level 68.6 % Track quality 99.9 % Test CRC FBF3021D Copy CRC FBF3021D Accurately ripped (confidence 3) [20FE0025] Copy OK
Track 2
Filename C:\audio\FLAC\!\Nina Simone-1990-My Babe Cat\Nina Simone-1990-My Babe Cat-02-Mississippi Goddamn.wav
Peak level 99.2 % Track quality 100.0 % Test CRC CFE46FDB Copy CRC CFE46FDB Accurately ripped (confidence 3) [83AB4393] Copy OK
Track 3
Filename C:\audio\FLAC\!\Nina Simone-1990-My Babe Cat\Nina Simone-1990-My Babe Cat-03-See lime woman.wav
Peak level 97.4 % Track quality 100.0 % Test CRC F0F350CF Copy CRC F0F350CF Accurately ripped (confidence 2) [0F6912CA] Copy OK
Track 4
Filename C:\audio\FLAC\!\Nina Simone-1990-My Babe Cat\Nina Simone-1990-My Babe Cat-04-Other woman.wav
Peak level 59.3 % Track quality 100.0 % Test CRC DDBD3578 Copy CRC DDBD3578 Accurately ripped (confidence 3) [43776654] Copy OK
Track 5
Filename C:\audio\FLAC\!\Nina Simone-1990-My Babe Cat\Nina Simone-1990-My Babe Cat-05-Four woman.wav
Pre-gap length 0:00:00.18
Copy aborted
Track 6
Filename C:\audio\FLAC\!\Nina Simone-1990-My Babe Cat\Nina Simone-1990-My Babe Cat-06-I'm singing just to know I'm alive.wav
Peak level 91.3 % Track quality 100.0 % Test CRC 2B03A78A Copy CRC 2B03A78A Accurately ripped (confidence 3) [83DCE566] Copy OK
Track 7
Filename C:\audio\FLAC\!\Nina Simone-1990-My Babe Cat\Nina Simone-1990-My Babe Cat-07-You must have another lover.wav
Pre-gap length 0:00:02.13
Peak level 99.2 % Track quality 100.0 % Test CRC EBAA5F25 Copy CRC EBAA5F25 Accurately ripped (confidence 3) [03B844BA] Copy OK
Track 8
Filename C:\audio\FLAC\!\Nina Simone-1990-My Babe Cat\Nina Simone-1990-My Babe Cat-08-Touching and caring.wav
Peak level 98.7 % Track quality 99.9 % Test CRC 25DFFD34 Copy CRC 25DFFD34 Accurately ripped (confidence 3) [65FCE1FE] Copy OK
Track 9
Filename C:\audio\FLAC\!\Nina Simone-1990-My Babe Cat\Nina Simone-1990-My Babe Cat-09-It's cold out there.wav
Pre-gap length 0:00:02.45
Peak level 90.3 % Track quality 100.0 % Test CRC EA41C5F0 Copy CRC EA41C5F0 Accurately ripped (confidence 3) [BBAB457D] Copy OK
Track 10
Filename C:\audio\FLAC\!\Nina Simone-1990-My Babe Cat\Nina Simone-1990-My Babe Cat-10-Porgy.wav
Pre-gap length 0:00:00.18
Peak level 81.2 % Track quality 100.0 % Test CRC 52A2AFD8 Copy CRC 52A2AFD8 Accurately ripped (confidence 3) [8BDEBA38] Copy OK
Track 11
Filename C:\audio\FLAC\!\Nina Simone-1990-My Babe Cat\Nina Simone-1990-My Babe Cat-11-Pirate Jenny.wav
Pre-gap length 0:00:00.33
Peak level 99.2 % Track quality 100.0 % Test CRC 51D1BD9E Copy CRC 51D1BD9E Accurately ripped (confidence 3) [AA965ADC] Copy OK
Track 12
Filename C:\audio\FLAC\!\Nina Simone-1990-My Babe Cat\Nina Simone-1990-My Babe Cat-12-For a while.wav
Pre-gap length 0:00:05.96
Peak level 59.2 % Track quality 100.0 % Test CRC 23B5ADAF Copy CRC 23B5ADAF Accurately ripped (confidence 3) [8DDCBC47] Copy OK
Track 13
Filename C:\audio\FLAC\!\Nina Simone-1990-My Babe Cat\Nina Simone-1990-My Babe Cat-13-You took my teeth.wav
Pre-gap length 0:00:00.18
Peak level 75.6 % Track quality 100.0 % Test CRC 5D6FE846 Copy CRC 5D6FE846 Accurately ripped (confidence 3) [F826749B] Copy OK
Track 14
Filename C:\audio\FLAC\!\Nina Simone-1990-My Babe Cat\Nina Simone-1990-My Babe Cat-14-I want a little sugar in my bowl.wav
Pre-gap length 0:00:00.18
Peak level 67.1 % Track quality 100.0 % Test CRC CCEB8977 Copy CRC CCEB8977 Accurately ripped (confidence 3) [371FCA35] Copy OK
Track 15
Filename C:\audio\FLAC\!\Nina Simone-1990-My Babe Cat\Nina Simone-1990-My Babe Cat-15-Backlash blues.wav
Pre-gap length 0:00:00.93
Peak level 67.3 % Track quality 100.0 % Test CRC 04E38DEB Copy CRC 04E38DEB Accurately ripped (confidence 3) [BD504E84] Copy OK
14 track(s) accurately ripped 1 track(s) canceled
Some tracks could not be verified as accurate
There were errors
End of status report
------------------------------------------------------------
Exact Audio Copy V0.99 prebeta 4 from 23. January 2008
EAC extraction logfile from 13. May 2009, 17:17
Nina Simone / My Babe Cat
Used drive : TSSTcorpCD/DVDW SH-S162A Adapter: 0 ID: 0
Read mode : SecureUtilize accurate stream : YesDefeat audio cache : YesMake use of C2 pointers : No
Read offset correction : 48Overread into Lead-In and Lead-Out : NoFill up missing offset samples with silence : YesDelete leading and trailing silent blocks : NoNull samples used in CRC calculations : YesUsed interface : Native Win32 interface for Win NT & 2000Gap handling : Appended to previous track
Used output format : User Defined EncoderSelected bitrate : 128 kBit/sQuality : HighAdd ID3 tag : NoCommand line compressor : C:\audio\Exact Audio Copy\Flac\flac.exeAdditional command line options : -V -8 -T "artist=%a" -T "title=%t" -T "album=%g" -T "date=%y" -T "tracknumber=%n" -T "genre=%m" %s
TOC of the extracted CD
Track | Start | Length | Start sector | End sector --------------------------------------------------------- 1 | 0:00.32 | 4:07.53 | 32 | 18609 2 | 4:08.10 | 4:49.70 | 18610 | 40354 3 | 8:58.05 | 5:32.67 | 40355 | 65321 4 | 14:30.72 | 4:12.73 | 65322 | 84294 5 | 18:43.70 | 4:49.65 | 84295 | 106034 6 | 23:33.60 | 3:48.12 | 106035 | 123146 7 | 27:21.72 | 4:30.55 | 123147 | 143451 8 | 31:52.52 | 5:35.05 | 143452 | 168581 9 | 37:27.57 | 5:33.13 | 168582 | 193569 10 | 43:00.70 | 4:59.17 | 193570 | 216011 11 | 48:00.12 | 4:52.20 | 216012 | 237931 12 | 52:52.32 | 5:42.40 | 237932 | 263621 13 | 58:34.72 | 1:09.10 | 263622 | 268806 14 | 59:44.07 | 3:37.53 | 268807 | 285134 15 | 63:21.60 | 2:48.15 | 285135 | 297749
Track 5
Filename C:\audio\FLAC\!\Nina Simone-1990-My Babe Cat\Nina Simone-1990-My Babe Cat-05-Four woman.wav
Pre-gap length 0:00:00.18
Copy aborted
No tracks could be verified as accurate
There were errors
End of status report
------------------------------------------------------------
Exact Audio Copy V0.99 prebeta 4 from 23. January 2008
EAC extraction logfile from 14. May 2009, 14:54
Nina Simone / My Babe Cat
Used drive : TSSTcorpCD/DVDW SH-S162A Adapter: 0 ID: 0
Read mode : SecureUtilize accurate stream : YesDefeat audio cache : YesMake use of C2 pointers : No
Read offset correction : 48Overread into Lead-In and Lead-Out : NoFill up missing offset samples with silence : YesDelete leading and trailing silent blocks : NoNull samples used in CRC calculations : YesUsed interface : Native Win32 interface for Win NT & 2000Gap handling : Appended to previous track
Used output format : User Defined EncoderSelected bitrate : 128 kBit/sQuality : HighAdd ID3 tag : NoCommand line compressor : C:\audio\Exact Audio Copy\Flac\flac.exeAdditional command line options : -V -8 -T "artist=%a" -T "title=%t" -T "album=%g" -T "date=%y" -T "tracknumber=%n" -T "genre=%m" %s
TOC of the extracted CD
Track | Start | Length | Start sector | End sector --------------------------------------------------------- 1 | 0:00.32 | 4:07.53 | 32 | 18609 2 | 4:08.10 | 4:49.70 | 18610 | 40354 3 | 8:58.05 | 5:32.67 | 40355 | 65321 4 | 14:30.72 | 4:12.73 | 65322 | 84294 5 | 18:43.70 | 4:49.65 | 84295 | 106034 6 | 23:33.60 | 3:48.12 | 106035 | 123146 7 | 27:21.72 | 4:30.55 | 123147 | 143451 8 | 31:52.52 | 5:35.05 | 143452 | 168581 9 | 37:27.57 | 5:33.13 | 168582 | 193569 10 | 43:00.70 | 4:59.17 | 193570 | 216011 11 | 48:00.12 | 4:52.20 | 216012 | 237931 12 | 52:52.32 | 5:42.40 | 237932 | 263621 13 | 58:34.72 | 1:09.10 | 263622 | 268806 14 | 59:44.07 | 3:37.53 | 268807 | 285134 15 | 63:21.60 | 2:48.15 | 285135 | 297749
Track 5
Filename C:\audio\FLAC\!\Nina Simone-1990-My Babe Cat\Nina Simone-1990-My Babe Cat-05-Four woman.wav
Peak level 95.2 % Track quality 99.9 % Test CRC 46BE255B Copy CRC 46BE255B Accurately ripped (confidence 2) [BD6EA13C] Copy OK
All tracks accurately ripped
No errors occurred
End of status report

Audiocheker's log

Started at: суббота, 16. 05. 2009. - 18:36.29
15 files found
01 -===- G:\Downloads\Nina Simone-1990-My Babe Cat\Nina Simone-1990-My Babe Cat-01-Do what you gotta do.flac
Extracted successfully
Conclusion: this track is CDDA with probability 100%
Tempfile successfully deleted.
02 -===- G:\Downloads\Nina Simone-1990-My Babe Cat\Nina Simone-1990-My Babe Cat-02-Mississippi Goddamn.flac
Extracted successfully
Conclusion: this track is CDDA with probability 100%
Tempfile successfully deleted.
03 -===- G:\Downloads\Nina Simone-1990-My Babe Cat\Nina Simone-1990-My Babe Cat-03-See lime woman.flac
Extracted successfully
Conclusion: this track is CDDA with probability 100%
Tempfile successfully deleted.
04 -===- G:\Downloads\Nina Simone-1990-My Babe Cat\Nina Simone-1990-My Babe Cat-04-Other woman.flac
Extracted successfully
Conclusion: this track is CDDA with probability 100%
Tempfile successfully deleted.
05 -===- G:\Downloads\Nina Simone-1990-My Babe Cat\Nina Simone-1990-My Babe Cat-05-Four woman.flac
Extracted successfully
Conclusion: this track is CDDA with probability 100%
Tempfile successfully deleted.
06 -===- G:\Downloads\Nina Simone-1990-My Babe Cat\Nina Simone-1990-My Babe Cat-06-I'm singing just to know I'm alive.flac
Extracted successfully
Conclusion: this track is CDDA with probability 100%
Tempfile successfully deleted.
07 -===- G:\Downloads\Nina Simone-1990-My Babe Cat\Nina Simone-1990-My Babe Cat-07-You must have another lover.flac
Extracted successfully
Conclusion: this track is CDDA with probability 100%
Tempfile successfully deleted.
08 -===- G:\Downloads\Nina Simone-1990-My Babe Cat\Nina Simone-1990-My Babe Cat-08-Touching and caring.flac
Extracted successfully
Conclusion: this track is CDDA with probability 100%
Tempfile successfully deleted.
09 -===- G:\Downloads\Nina Simone-1990-My Babe Cat\Nina Simone-1990-My Babe Cat-09-It's cold out there.flac
Extracted successfully
Conclusion: this track is MPEG with probability 85%
Tempfile successfully deleted.
10 -===- G:\Downloads\Nina Simone-1990-My Babe Cat\Nina Simone-1990-My Babe Cat-10-Porgy.flac
Extracted successfully
Conclusion: this track is CDDA with probability 100%
Tempfile successfully deleted.
11 -===- G:\Downloads\Nina Simone-1990-My Babe Cat\Nina Simone-1990-My Babe Cat-11-Pirate Jenny.flac
Extracted successfully
Conclusion: this track is CDDA with probability 100%
Tempfile successfully deleted.
12 -===- G:\Downloads\Nina Simone-1990-My Babe Cat\Nina Simone-1990-My Babe Cat-12-For a while.flac
Extracted successfully
Conclusion: this track is CDDA with probability 99%
Tempfile successfully deleted.
13 -===- G:\Downloads\Nina Simone-1990-My Babe Cat\Nina Simone-1990-My Babe Cat-13-You took my teeth.flac
Extracted successfully
Conclusion: this track is CDDA with probability 99%
Tempfile successfully deleted.
14 -===- G:\Downloads\Nina Simone-1990-My Babe Cat\Nina Simone-1990-My Babe Cat-14-I want a little sugar in my bowl.flac
Extracted successfully
Conclusion: this track is CDDA with probability 100%
Tempfile successfully deleted.
15 -===- G:\Downloads\Nina Simone-1990-My Babe Cat\Nina Simone-1990-My Babe Cat-15-Backlash blues.flac
Extracted successfully
Conclusion: this track is CDDA with probability 100%
Tempfile successfully deleted.
Finished at: суббота, 16. 05. 2009. - 18:52.16 (operation time: 0:15.47)
Доп. информация:
Источник - другой трекер. ер - Twdr.
Внимание! Торрент-файл перезалит без изменения содержимого раздачи в связи с просьбой администрации снять флаг "Приватная раздача". Скачавшим ранее просьба перекачать торрент-файл, перехешировать содержимое и присоединиться к раздаче.

[torrentc.info]_t_1849063.torrent
Торрент: Зарегистрирован ·  [ 2017-06-05 22:30 ] ·  9593b7278f27802655b2bd389b40deaa64853a8f

15 KB

Статус: проверено
Скачан: 0 раз
Размер: 346 MB
Оценка: 
(Голосов: 0)
Сказали спасибо: 0  Спасибо
Похожие темы
[Профиль]    [ЛС]
Показать сообщения:    
Ответить на тему

Текущее время: Сегодня 14:03

Часовой пояс: GMT + 7



Вы не можете начинать темы
Вы не можете отвечать на сообщения
Вы не можете редактировать свои сообщения
Вы не можете удалять свои сообщения
Вы не можете голосовать в опросах
Вы не можете прикреплять файлы к сообщениям
Вы можете скачивать файлы