Albin de la Simone - L\'un de nous - Musique Acoustic - TV5MONDE (Филипп Сомме / Philippe Sommet) [27.05.2017, Pop, French Chanson, Live, DVB]

Ответить на тему
Статистика раздачи [Обновить пиров]
Размер:  597 MB   |    Зарегистрирован:  1 год 5 месяцев   |    Скачан:  0 раз

Полного источника не было: Никогда

 
   
 
 
 
Автор Сообщение

torrentc.info

Создавать темы 05-Июн-2017 22:30

[Цитировать]

Albin de la Simone - L'un de nous
Musique Acoustic от 27.05.2017 - TV5MONDE- Страна: Франция
Жанр: Pop, French Chanson, Live
Продолжительность: 00:26:31
Год выхода: 2017 г.
Перевод: Субтитры (перевод М.Кузиной, Éclair Media)
Субтитры: русские, английские, французские, нидерландские, румынские
Режиссер: Филипп Сомме / Philippe SommetОписание: Музыкальная передача Musique Acoustic канала французского телевидения TV5MONDE представляет преимущественно французских же талантливых молодых исполнителей, чье живое выступление в студии без зрителей может состоять из одной или нескольких песен, иногда передача бывает полностью посвящена одному исполнителю, презентующему новый альбом. Musique Acoustic выходит в эфир раз в 1-2 недели. Ведущим передачи c 2006 года является ее создатель - популярный радио – и телеведущий - Sébastien Folin, получивший известность в 2005 году серией из 20 коротких программ для TF1 "Любовь в 20 лет".
Сегодня молодой французский автор-исполнитель Albin de la Simone представляет свой пятый альбом L'un de nous (2017).
Треклист:
01. Dans la tete
02. Le grand amour
03. Ma barbe pousse
04. La fleur de l'age
05. Une femme
06. Mes epaules-[url=tracker.php?nm=Musique%20Acoustic%20TV5MONDE]Передачи Musique Acoustic[/url]-Источник: Hot Bird (13.0°E) TV5MONDE Europe DVB-S
Качество: DVB
Формат файла: MKV
Видео кодек: MPEG2
Аудио кодек: MP2
Видео: MPEG Video 2, 720x576@1024x576 (16:9), 25 fps, ~2890 kbps avg, ~0.279 bit/pixel
Аудио: 48 kHz, MPEG Audio 2, 2 ch, 192.00 kbps avg
Формат файла субтитров: prerendered (IDX+SUB)

MediaInfo

GeneralUnique ID : 171283469083806955626950910890913967019 (0x80DBFF07889703F79739DEACF9622BAB)Complete name : [apreder]TV5MONDE_Musique_Aqoustic_Albin_de_la_Simone_L'un_de_nous(27.05.2017)DVB.mkvFormat : MatroskaFormat version : Version 2File size : 597 MiBDuration : 26 min 31 sOverall bit rate mode : VariableOverall bit rate : 3 145 kb/sMovie name : AcousticReleased date : 2017-05-27Encoded date : UTC 2017-06-02 04:36:52Writing application : mkvmerge v12.0.0 ('Trust / Lust') 64bitWriting library : libebml v1.3.4 + libmatroska v1.4.5Cover : YesAttachments : cover.jpg / small_cover.jpgDIRECTOR : Philippe SommetGENRE : MusicKEYWORDS : TorrentcLAW_RATING : 12+SUMMARY : Albin de la Simone - L'un de nous
VideoID : 1Format : MPEG VideoFormat version : Version 2Format profile : Main@MainFormat settings, BVOP : YesFormat settings, Matrix : CustomFormat settings, GOP : VariableFormat settings, picture structure : FrameCodec ID : V_MPEG2Codec ID/Info : MPEG 1 or 2 VideoDuration : 26 min 31 sBit rate mode : VariableBit rate : 2 890 kb/sWidth : 720 pixelsHeight : 576 pixelsDisplay aspect ratio : 16:9Frame rate mode : ConstantFrame rate : 25.000 FPSStandard : PALColor space : YUVChroma subsampling : 4:2:0Bit depth : 8 bitsScan type : InterlacedScan order : Top Field FirstCompression mode : LossyBits/(Pixel*Frame) : 0.279Time code of first frame : 00:00:00:00Time code source : Group of pictures headerGOP, Open/Closed : OpenGOP, Open/Closed of first frame : ClosedStream size : 548 MiB (92%)Default : YesForced : No
AudioID : 2Format : MPEG AudioFormat version : Version 1Format profile : Layer 2Mode : Joint stereoMode extension : Intensity Stereo + MS StereoCodec ID : A_MPEG/L2Codec ID/Hint : MP2Duration : 26 min 31 sBit rate mode : ConstantBit rate : 192 kb/sChannel(s) : 2 channelsSampling rate : 48.0 kHzCompression mode : LossyStream size : 36.4 MiB (6%)Language : FrenchDefault : YesForced : No
Text #1ID : 3Format : VobSubCodec ID : S_VOBSUBCodec ID/Info : Picture based subtitle format used on DVDsLanguage : RussianDefault : NoForced : No
Text #2ID : 4Format : UTF-8Codec ID : S_TEXT/UTF8Codec ID/Info : UTF-8 Plain TextLanguage : EnglishDefault : NoForced : No
Text #3ID : 5Format : UTF-8Codec ID : S_TEXT/UTF8Codec ID/Info : UTF-8 Plain TextLanguage : FrenchDefault : NoForced : No
Text #4ID : 6Format : VobSubCodec ID : S_VOBSUBCodec ID/Info : Picture based subtitle format used on DVDsLanguage : GermanDefault : NoForced : No
Text #5ID : 7Format : VobSubCodec ID : S_VOBSUBCodec ID/Info : Picture based subtitle format used on DVDsLanguage : DutchDefault : NoForced : No
Text #6ID : 8Format : VobSubCodec ID : S_VOBSUBCodec ID/Info : Picture based subtitle format used on DVDsLanguage : RomanianDefault : NoForced : No

Скриншоты

Резервные скриншоты

- [3'672]


[torrentc.info]_t_5410952.torrent
Торрент: Зарегистрирован ·  [ 2017-06-05 22:30 ] ·  b0c301a1daeaffc07970897dfad4bb871606bad8

6 KB

Статус: проверено
Скачан: 0 раз
Размер: 597 MB
Оценка: 
(Голосов: 0)
Сказали спасибо: 0  Спасибо
Похожие темы
[Профиль]    [ЛС]
Показать сообщения:    
Ответить на тему

Текущее время: Сегодня 12:33

Часовой пояс: GMT + 7



Вы не можете начинать темы
Вы не можете отвечать на сообщения
Вы не можете редактировать свои сообщения
Вы не можете удалять свои сообщения
Вы не можете голосовать в опросах
Вы не можете прикреплять файлы к сообщениям
Вы можете скачивать файлы