(Heavy Metal) VA - 9 Rare Songs von 9 Legenden - 2012, FLAC (tracks+.cue), lossless

Ответить на тему
Статистика раздачи [Обновить пиров]
Размер:  392 MB   |    Зарегистрирован:  1 год   |    Скачан:  0 раз

Полного источника не было: Никогда

Личеров:  1  [  0 KB/s  ]   Подробная статистика скачивающих
 
   
 
 
 
Автор Сообщение

torrentc.info

Создавать темы 21-Май-2017 00:37

[Цитировать]

Various Artists - 9 Rare Songs von 9 Legenden
Страна: International
Жанр: Heavy Metal
Год издания: 2012
Производитель диска: RockHard ‎[N/A]
Аудиокодек: FLAC (*.flac)
Тип рипа: tracks+.cue
Битрейт аудио: lossless
Продолжительность: 0:54:03
Источник: Original CD
Сканы: да
Треклист:
01. BOBBY & GERRE - Die Zwei von der Tanke (3:36)
02. KREATOR - Phantom Antichrist (Edit) (4:31)
03. BLIND GUARDIAN - I'm Alive (Demo 1991) (5:20)
04. ARCH ENEMY - The Zoo (4:42)
05. AMON AMARTH - Children Of The Grave (5:21)
06. NEVERMORE - The Purist's Drug (4:45)
07. IN EXTREMO - I Disappear (4:13)
08. HEAVEN SHALL BURN - True Belief (4:30)
09. ICED EARTH - Dante's Inferno (Version 2011) (17:05)

Отчёт ЕАС

Exact Audio Copy V1.1 from 23. June 2015
EAC extraction logfile from 11. May 2017, 18:01
Various Artists / 9 Rare Songs von 9 Legenden
Used drive : Optiarc DVD RW AD-7200S Adapter: 5 ID: 0
Read mode : SecureUtilize accurate stream : YesDefeat audio cache : YesMake use of C2 pointers : No
Read offset correction : 48Overread into Lead-In and Lead-Out : NoFill up missing offset samples with silence : YesDelete leading and trailing silent blocks : NoNull samples used in CRC calculations : YesUsed interface : Installed external ASPI interfaceGap handling : Appended to previous track
Used output format : User Defined EncoderSelected bitrate : 128 kBit/sQuality : HighAdd ID3 tag : NoCommand line compressor : C:\Program Files\EAC\Exact Audio Copy\Flac\flac.exeAdditional command line options : -V -8 -T "Genre=%genre%" -T "Artist=%artist%" -T "Title=%title%" -T "Album=%albumtitle%" -T "Date=%year%" -T "Tracknumber=%tracknr%" -T "Comment=%comment%" %source%
TOC of the extracted CD
Track | Start | Length | Start sector | End sector --------------------------------------------------------- 1 | 0:00.00 | 3:35.48 | 0 | 16172 2 | 3:35.48 | 4:31.25 | 16173 | 36522 3 | 8:06.73 | 5:19.41 | 36523 | 60488 4 | 13:26.39 | 4:42.23 | 60489 | 81661 5 | 18:08.62 | 5:21.20 | 81662 | 105756 6 | 23:30.07 | 4:44.49 | 105757 | 127105 7 | 28:14.56 | 4:13.23 | 127106 | 146103 8 | 32:28.04 | 4:29.38 | 146104 | 166316 9 | 36:57.42 | 17:05.33 | 166317 | 243224
Track 1
Filename C:\darkbrides\01 - BOBBY & GERRE - Die Zwei von der Tanke.wav
Pre-gap length 0:00:02.00
Peak level 87.5 % Extraction speed 2.3 X Track quality 100.0 % Test CRC 4FD35068 Copy CRC 4FD35068 Accurately ripped (confidence 11) [DDC67303] (AR v2) Copy OK
Track 2
Filename C:\darkbrides\02 - KREATOR - Phantom Antichrist (Edit).wav
Peak level 99.0 % Extraction speed 2.3 X Track quality 99.9 % Test CRC 225BD07E Copy CRC 225BD07E Accurately ripped (confidence 11) [3C3F5413] (AR v2) Copy OK
Track 3
Filename C:\darkbrides\03 - BLIND GUARDIAN - I'm Alive (Demo 1991).wav
Peak level 99.0 % Extraction speed 2.7 X Track quality 99.9 % Test CRC 7F0C5DA4 Copy CRC 7F0C5DA4 Accurately ripped (confidence 11) [D5F715C1] (AR v2) Copy OK
Track 4
Filename C:\darkbrides\04 - ARCH ENEMY - The Zoo.wav
Peak level 99.0 % Extraction speed 3.2 X Track quality 100.0 % Test CRC A44679CE Copy CRC A44679CE Accurately ripped (confidence 11) [609222FD] (AR v2) Copy OK
Track 5
Filename C:\darkbrides\05 - AMON AMARTH - Children Of The Grave.wav
Pre-gap length 0:00:01.26
Peak level 99.0 % Extraction speed 3.5 X Track quality 100.0 % Test CRC 3FCB5869 Copy CRC 3FCB5869 Accurately ripped (confidence 11) [9B1411EC] (AR v2) Copy OK
Track 6
Filename C:\darkbrides\06 - NEVERMORE - The Purist's Drug.wav
Peak level 97.3 % Extraction speed 3.7 X Track quality 100.0 % Test CRC B0AA39C6 Copy CRC B0AA39C6 Accurately ripped (confidence 11) [3E590930] (AR v2) Copy OK
Track 7
Filename C:\darkbrides\07 - IN EXTREMO - I Disappear.wav
Peak level 79.9 % Extraction speed 3.4 X Track quality 99.9 % Test CRC BEB19CBB Copy CRC BEB19CBB Accurately ripped (confidence 11) [605EE4F0] (AR v2) Copy OK
Track 8
Filename C:\darkbrides\08 - HEAVEN SHALL BURN - True Belief.wav
Peak level 81.8 % Extraction speed 3.9 X Track quality 100.0 % Test CRC 995FB2EF Copy CRC 995FB2EF Accurately ripped (confidence 11) [DC1EDBBE] (AR v2) Copy OK
Track 9
Filename C:\darkbrides\09 - ICED EARTH - Dante's Inferno (Version 2011).wav
Peak level 92.2 % Extraction speed 4.8 X Track quality 100.0 % Test CRC 524D4BBD Copy CRC 524D4BBD Accurately ripped (confidence 11) [E39406ED] (AR v2) Copy OK
All tracks accurately ripped
No errors occurred
End of status report
---- CUETools DB Plugin V2.1.6
[CTDB TOCID: xDuE93kpi8dyDEOQuN7XrCkbbC8-] foundSubmit result: xDuE93kpi8dyDEOQuN7XrCkbbC8- has been confirmedTrack | CTDB Status 1 | (13/13) Accurately ripped 2 | (13/13) Accurately ripped 3 | (13/13) Accurately ripped 4 | (13/13) Accurately ripped 5 | (13/13) Accurately ripped 6 | (13/13) Accurately ripped 7 | (13/13) Accurately ripped 8 | (13/13) Accurately ripped 9 | (12/13) Accurately ripped
==== Log checksum D7F112DFAF58639C6BC69AC7298101CDC279F7D19FFAD066F2A388D2957D9774 ====

Содержание индексной карты (.CUE)

REM GENRE MetalREM DATE 2012REM DISCID 750CAB09REM COMMENT "ExactAudioCopy v1.1"PERFORMER "Various Artists"TITLE "9 Rare Songs von 9 Legenden"FILE "01 - BOBBY & GERRE - Die Zwei von der Tanke.wav" WAVE TRACK 01 AUDIO TITLE "BOBBY & GERRE - Die Zwei von der Tanke" PERFORMER "Various Artists" INDEX 01 00:00:00FILE "02 - KREATOR - Phantom Antichrist (Edit).wav" WAVE TRACK 02 AUDIO TITLE "KREATOR - Phantom Antichrist (Edit)" PERFORMER "Various Artists" INDEX 01 00:00:00FILE "03 - BLIND GUARDIAN - I'm Alive (Demo 1991).wav" WAVE TRACK 03 AUDIO TITLE "BLIND GUARDIAN - I'm Alive (Demo 1991)" PERFORMER "Various Artists" INDEX 01 00:00:00FILE "04 - ARCH ENEMY - The Zoo.wav" WAVE TRACK 04 AUDIO TITLE "ARCH ENEMY - The Zoo" PERFORMER "Various Artists" INDEX 01 00:00:00 TRACK 05 AUDIO TITLE "AMON AMARTH - Children Of The Grave" PERFORMER "Various Artists" INDEX 00 04:40:72FILE "05 - AMON AMARTH - Children Of The Grave.wav" WAVE INDEX 01 00:00:00FILE "06 - NEVERMORE - The Purist's Drug.wav" WAVE TRACK 06 AUDIO TITLE "NEVERMORE - The Purist's Drug" PERFORMER "Various Artists" INDEX 01 00:00:00FILE "07 - IN EXTREMO - I Disappear.wav" WAVE TRACK 07 AUDIO TITLE "IN EXTREMO - I Disappear" PERFORMER "Various Artists" INDEX 01 00:00:00FILE "08 - HEAVEN SHALL BURN - True Belief.wav" WAVE TRACK 08 AUDIO TITLE "HEAVEN SHALL BURN - True Belief" PERFORMER "Various Artists" INDEX 01 00:00:00FILE "09 - ICED EARTH - Dante's Inferno (Version 2011).wav" WAVE TRACK 09 AUDIO TITLE "ICED EARTH - Dante's Inferno (Version 2011)" PERFORMER "Various Artists" INDEX 01 00:00:00
-


[torrentc.info]_t_5401325.torrent
Торрент: Зарегистрирован ·  [ 2017-05-21 00:24 ] ·  04fbd0d6b0096f434738b8498a38fb0755bfdeb8

17 KB

Статус: проверено
Скачан: 0 раз
Размер: 392 MB
Оценка: 
(Голосов: 0)
Сказали спасибо: 0  Спасибо
Похожие темы
[Профиль]    [ЛС]
Показать сообщения:    
Ответить на тему

Текущее время: Сегодня 13:31

Часовой пояс: GMT + 7



Вы не можете начинать темы
Вы не можете отвечать на сообщения
Вы не можете редактировать свои сообщения
Вы не можете удалять свои сообщения
Вы не можете голосовать в опросах
Вы не можете прикреплять файлы к сообщениям
Вы можете скачивать файлы