Заклятие / The Conjuring (Джеймс Ван / James Wan) [2013, ужасы, триллер, BDRip] Dub

Ответить на тему
Статистика раздачи [Обновить пиров]
Размер:  592 MB   |    Зарегистрирован:  1 год 9 месяцев   |    Скачан:  0 раз

Полного источника не было: Никогда

 
   
 
 
 
Автор Сообщение

torrentc.info

Создавать темы 15-Фев-2017 09:50

[Цитировать]

Заклятие-- - - - - - - - - -- Оригинальное Название: The Conjuring
Год Выпуска: 2013 г.
Cтрана: США
Жанр: ужасы, триллер
Продолжительность: 01:51:58-Перевод: Профессиональный (дублированный) [Лицензия]
Cубтитры: Русский хардсаб [на надписи]-Режиссер: Джеймс Ван
В ролях: Вера Фармига, Патрик Уилсон, Рон Ливингстон, Лили Тейлор, Шэнли Касвелл, Хейли МакФарланд, Джои Кинг, Маккензи Фой, Кайла Дивер, Шэнон Кук-Чан-Описание:
В основе картины лежит реальная история семьи Перрон, которые утверждали, что жили в окружении привидений, как добрых, так и злых. Духи населяли дом на Род-Айленде, в котором Перроны проживали в семидесятых годах XX века.
-Источник: BD-Remux
Качество: BDRip
Формат файла: MP4
Видео кодек: H.264
Аудио кодек: AAC
Видео: MPEG-4 AVC Video (H.264) / 480x208 / 608 kbps / 23.976 fps / 40:17 / Main Profile 3.0
Аудио: AAC, 2 channels, 48 kHz, 128 kbps-

MediaInfo

General
Complete name                       : D:\PSP\Раздачи\Фильмы\Заклятие.2013.BDRip.mp4
Format                              : MPEG-4
Format profile                      : Base Media
Codec ID                            : isom
File size                           : 592 MiB
Duration                            : 1h 51mn
Overall bit rate mode               : Variable
Overall bit rate                    : 740 Kbps
Encoded date                        : UTC 2013-10-30 18:25:20
Tagged date                         : UTC 2013-10-30 18:25:20
Video
ID                                  : 1
Format                              : AVC
Format/Info                         : Advanced Video Codec
Format profile                      : Main@L3.0
Format settings, CABAC              : Yes
Format settings, ReFrames           : 3 frames
Codec ID                            : avc1
Codec ID/Info                       : Advanced Video Coding
Duration                            : 1h 51mn
Bit rate                            : 608 Kbps
Maximum bit rate                    : 7 685 Kbps
Width                               : 480 pixels
Height                              : 208 pixels
Display aspect ratio                : 2.35:1
Frame rate mode                     : Constant
Frame rate                          : 23.976 fps
Color space                         : YUV
Chroma subsampling                  : 4:2:0
Bit depth                           : 8 bits
Scan type                           : Progressive
Bits/(Pixel*Frame)                  : 0.254
Stream size                         : 487 MiB (82%)
Writing library                     : x264 core 130 r2273 b3065e6
Encoding settings                   : cabac=1 / ref=3 / deblock=1:-2:-1 / analyse=0x1:0x131 / me=umh / subme=10 / psy=1 / psy_rd=1.00:0.20 / mixed_ref=1 / me_range=16 / chroma_me=1 / trellis=2 / 8x8dct=0 / cqm=0 / deadzone=21,11 / fast_pskip=0 / chroma_qp_offset=-3 / threads=12 / lookahead_threads=1 / sliced_threads=0 / nr=0 / decimate=0 / interlaced=0 / bluray_compat=0 / constrained_intra=0 / bframes=3 / b_pyramid=0 / b_adapt=2 / b_bias=0 / direct=3 / weightb=1 / open_gop=0 / weightp=2 / keyint=250 / keyint_min=23 / scenecut=40 / intra_refresh=0 / rc_lookahead=60 / rc=2pass / mbtree=1 / bitrate=608 / ratetol=1.0 / qcomp=0.60 / qpmin=0 / qpmax=69 / qpstep=4 / cplxblur=20.0 / qblur=0.5 / ip_ratio=1.40 / aq=1:1.00
Encoded date                        : UTC 2013-10-30 18:25:20
Tagged date                         : UTC 2013-10-30 18:26:10
Audio
ID                                  : 2
Format                              : AAC
Format/Info                         : Advanced Audio Codec
Format profile                      : LC
Codec ID                            : 40
Duration                            : 1h 51mn
Bit rate mode                       : Variable
Bit rate                            : 128 Kbps
Maximum bit rate                    : 156 Kbps
Channel(s)                          : 2 channels
Channel positions                   : Front: L R
Sampling rate                       : 48.0 KHz
Compression mode                    : Lossy
Delay relative to video             : 83ms
Stream size                         : 102 MiB (17%)
Encoded date                        : UTC 2013-10-30 18:26:06
Tagged date                         : UTC 2013-10-30 18:26:10

-

Скриншоты





[torrentc.info]_torrent-4983350.torrent
Торрент: Зарегистрирован ·  [ 2017-02-15 09:42 ] ·  72108ace9e53e1d69fe1bf7364896340fe8a36db

12 KB

Статус: проверено
Скачан: 0 раз
Размер: 592 MB
Оценка: 
(Голосов: 0)
Сказали спасибо: 0  Спасибо
Похожие темы
[Профиль]    [ЛС]
Показать сообщения:    
Ответить на тему

Текущее время: Сегодня 17:51

Часовой пояс: GMT + 7



Вы не можете начинать темы
Вы не можете отвечать на сообщения
Вы не можете редактировать свои сообщения
Вы не можете удалять свои сообщения
Вы не можете голосовать в опросах
Вы не можете прикреплять файлы к сообщениям
Вы можете скачивать файлы