Несвятые / Ain\'t Them Bodies Saints (Дэвид Лоури / David Lowery) [2013, драма, мелодрама, криминал, BDRip] DVO (Paradox)

Ответить на тему
Статистика раздачи [Обновить пиров]
Размер:  530 MB   |    Зарегистрирован:  1 год 9 месяцев   |    Скачан:  0 раз

Полного источника не было: Никогда

 
   
 
 
 
Автор Сообщение

torrentc.info

Создавать темы 15-Фев-2017 09:50

[Цитировать]

Несвятые-- - - - - - - - - -- Оригинальное Название: Ain't Them Bodies Saints
Год Выпуска: 2013 г.
Cтрана: США
Жанр: драма, мелодрама, криминал
Продолжительность: 01:36:00-Перевод: Любительский (двухголосый, закадровый) [И. Грачева и М. Максимов (Студия "Paradox")]-Режиссер: Дэвид Лоури
В ролях: Кейси Аффлек, Руни Мара, Бен Фостер, Кит Кэрредин, Кеннади Смит, Джеклинн Смит, Нэйт Паркер, Роберт Лонгстрит, Чарльз Бэйкер, Августин Фриззелл-Описание:
Техас, 1970-е годы. Попав в засаду, трое молодых преступников тяжело ранят одного из окруживших их полицейских. Главарь банды Боб Малдун берет всю вину на себя, хотя роковой выстрел сделала его девушка Рут, и отправляется за решетку на много лет. Уже в тюрьме он узнает, что у него родилась дочь Сильвия. Чтобы увидеть девочку Боб совершает побег за побегом, но вырваться на свободу ему удается только через четыре долгих года. Его следы ведут в противоположном от родных мест направлении, однако техасская полиция (и прежде всего Патрик Смоллс — офицер, раненный в той давней перестрелке) считает, что появиться беглец может только там, где находится маленькая Сильвия. Все готово к охоте на Малдуна, но, оказывается, что не только служители закона хотят заставить Боба сполна заплатить по давним счетам.
-Источник: BD-Remux
Качество: BDRip
Формат файла: MP4
Видео кодек: H.264
Аудио кодек: AAC
Видео: MPEG-4 AVC Video (H.264) / 480x208 / 640 kbps / 23.976 fps / 40:17 / Main Profile 3.0
Аудио: AAC, 2 channels, 48 kHz, 128 kbps-

MediaInfo

General
Complete name                       : D:\PSP\Раздачи\Фильмы\Несвятые.2013.BDRip.mp4
Format                              : MPEG-4
Format profile                      : Base Media
Codec ID                            : isom
File size                           : 530 MiB
Duration                            : 1h 36mn
Overall bit rate mode               : Variable
Overall bit rate                    : 771 Kbps
Encoded date                        : UTC 2013-12-12 03:24:55
Tagged date                         : UTC 2013-12-12 03:24:55
Video
ID                                  : 1
Format                              : AVC
Format/Info                         : Advanced Video Codec
Format profile                      : Main@L3.0
Format settings, CABAC              : Yes
Format settings, ReFrames           : 3 frames
Codec ID                            : avc1
Codec ID/Info                       : Advanced Video Coding
Duration                            : 1h 36mn
Bit rate                            : 640 Kbps
Maximum bit rate                    : 3 571 Kbps
Width                               : 480 pixels
Height                              : 208 pixels
Display aspect ratio                : 2.35:1
Frame rate mode                     : Constant
Frame rate                          : 23.976 fps
Color space                         : YUV
Chroma subsampling                  : 4:2:0
Bit depth                           : 8 bits
Scan type                           : Progressive
Bits/(Pixel*Frame)                  : 0.267
Stream size                         : 439 MiB (83%)
Writing library                     : x264 core 130 r2273 b3065e6
Encoding settings                   : cabac=1 / ref=3 / deblock=1:-2:-1 / analyse=0x1:0x131 / me=umh / subme=10 / psy=1 / psy_rd=1.00:0.20 / mixed_ref=1 / me_range=16 / chroma_me=1 / trellis=2 / 8x8dct=0 / cqm=0 / deadzone=21,11 / fast_pskip=0 / chroma_qp_offset=-3 / threads=12 / lookahead_threads=1 / sliced_threads=0 / nr=0 / decimate=0 / interlaced=0 / bluray_compat=0 / constrained_intra=0 / bframes=3 / b_pyramid=0 / b_adapt=2 / b_bias=0 / direct=3 / weightb=1 / open_gop=0 / weightp=2 / keyint=250 / keyint_min=23 / scenecut=40 / intra_refresh=0 / rc_lookahead=60 / rc=2pass / mbtree=1 / bitrate=640 / ratetol=1.0 / qcomp=0.60 / qpmin=0 / qpmax=69 / qpstep=4 / cplxblur=20.0 / qblur=0.5 / ip_ratio=1.40 / aq=1:1.00
Encoded date                        : UTC 2013-12-12 03:24:55
Tagged date                         : UTC 2013-12-12 03:25:38
Audio
ID                                  : 2
Format                              : AAC
Format/Info                         : Advanced Audio Codec
Format profile                      : LC
Codec ID                            : 40
Duration                            : 1h 36mn
Bit rate mode                       : Variable
Bit rate                            : 128 Kbps
Maximum bit rate                    : 148 Kbps
Channel(s)                          : 2 channels
Channel positions                   : Front: L R
Sampling rate                       : 48.0 KHz
Compression mode                    : Lossy
Delay relative to video             : 83ms
Stream size                         : 87.8 MiB (17%)
Encoded date                        : UTC 2013-12-12 03:25:35
Tagged date                         : UTC 2013-12-12 03:25:38

-

Скриншоты


- -Если вы скачали данный релиз и хотите выложить его на другом ресурсе -
пожалуйста, указывайте первоисточник
- R.G. Video Games World


[torrentc.info]_torrent-4983394.torrent
Торрент: Зарегистрирован ·  [ 2017-02-15 09:42 ] ·  8e43f859d385dcfcc724cf8c7f649343f60dc4ea

11 KB

Статус: проверено
Скачан: 0 раз
Размер: 530 MB
Оценка: 
(Голосов: 0)
Сказали спасибо: 0  Спасибо
[Профиль]    [ЛС]
Показать сообщения:    
Ответить на тему

Текущее время: Сегодня 15:36

Часовой пояс: GMT + 7



Вы не можете начинать темы
Вы не можете отвечать на сообщения
Вы не можете редактировать свои сообщения
Вы не можете удалять свои сообщения
Вы не можете голосовать в опросах
Вы не можете прикреплять файлы к сообщениям
Вы можете скачивать файлы