Околофутбола (Антон Борматов) [2013, драма, криминал, BDRip]

Ответить на тему
Статистика раздачи [Обновить пиров]
Размер:  562 MB   |    Зарегистрирован:  1 год 9 месяцев   |    Скачан:  0 раз

Полного источника не было: Никогда

 
   
 
 
 
Автор Сообщение

torrentc.info

Создавать темы 15-Фев-2017 09:50

[Цитировать]

Околофутбола-«Нас не изменить!»- Оригинальное Название: Околофутбола
Год Выпуска: 2013 г.
Cтрана: Россия
Жанр: драма, криминал
Продолжительность: 01:36:49-Перевод: Не требуется [Оригинал]-Режиссер: Антон Борматов
В ролях: Александр Ратников, Иван Фоминов, Григорий Иванец, Павел Ерлыков, Дарья Мингазетдинова, Юлия Маньковская, Евгений Березин, Никита Кукушкин, Сергей Шнырев, Максим Павлов-Описание:
Фильм о самой закрытой части футбольных болельщиков — околофутбольных хулиганах. Они — самые агрессивные и жестокие представители мира футбольных фанатов. Они — элита околофутбола. Кем бы они ни были в обычной жизни — студентами или банкирами, музыкантами или автомеханиками, на самом деле все они — одна «фирма». Попасть в «фирму» очень сложно, но если ты в ней оказался — это на всю жизнь. И обратного пути нет.
-Источник: Blu-Ray Disc
Качество: BDRip
Формат файла: MP4
Видео кодек: H.264
Аудио кодек: AAC
Видео: MPEG-4 AVC Video (H.264) / 480х272 / 680 kbps / 24.000 fps / 16:9 / Main Profile 3.0
Аудио: AAC, 2 channels, 48 kHz, 128 kbps-

MediaInfo

General
Complete name                       : D:\PSP\Раздачи\Фильмы\Околофутбола.2013.BDRip.mp4
Format                              : MPEG-4
Format profile                      : Base Media
Codec ID                            : isom
File size                           : 562 MiB
Duration                            : 1h 36mn
Overall bit rate mode               : Variable
Overall bit rate                    : 811 Kbps
Encoded date                        : UTC 2013-11-17 02:12:53
Tagged date                         : UTC 2013-11-17 02:12:53
Video
ID                                  : 1
Format                              : AVC
Format/Info                         : Advanced Video Codec
Format profile                      : Main@L3.0
Format settings, CABAC              : Yes
Format settings, ReFrames           : 3 frames
Codec ID                            : avc1
Codec ID/Info                       : Advanced Video Coding
Duration                            : 1h 36mn
Bit rate                            : 680 Kbps
Maximum bit rate                    : 4 766 Kbps
Width                               : 480 pixels
Height                              : 272 pixels
Display aspect ratio                : 16:9
Frame rate mode                     : Constant
Frame rate                          : 24.000 fps
Color space                         : YUV
Chroma subsampling                  : 4:2:0
Bit depth                           : 8 bits
Scan type                           : Progressive
Bits/(Pixel*Frame)                  : 0.217
Stream size                         : 471 MiB (84%)
Writing library                     : x264 core 130 r2273 b3065e6
Encoding settings                   : cabac=1 / ref=3 / deblock=1:-2:-1 / analyse=0x1:0x131 / me=umh / subme=10 / psy=1 / psy_rd=1.00:0.20 / mixed_ref=1 / me_range=16 / chroma_me=1 / trellis=2 / 8x8dct=0 / cqm=0 / deadzone=21,11 / fast_pskip=0 / chroma_qp_offset=-3 / threads=12 / lookahead_threads=1 / sliced_threads=0 / nr=0 / decimate=0 / interlaced=0 / bluray_compat=0 / constrained_intra=0 / bframes=3 / b_pyramid=0 / b_adapt=2 / b_bias=0 / direct=3 / weightb=1 / open_gop=0 / weightp=2 / keyint=250 / keyint_min=23 / scenecut=40 / intra_refresh=0 / rc_lookahead=60 / rc=2pass / mbtree=1 / bitrate=680 / ratetol=1.0 / qcomp=0.60 / qpmin=0 / qpmax=69 / qpstep=4 / cplxblur=20.0 / qblur=0.5 / ip_ratio=1.40 / aq=1:1.00
Encoded date                        : UTC 2013-11-17 02:12:53
Tagged date                         : UTC 2013-11-17 02:13:36
Audio
ID                                  : 2
Format                              : AAC
Format/Info                         : Advanced Audio Codec
Format profile                      : LC
Codec ID                            : 40
Duration                            : 1h 36mn
Bit rate mode                       : Variable
Bit rate                            : 128 Kbps
Maximum bit rate                    : 151 Kbps
Channel(s)                          : 2 channels
Channel positions                   : Front: L R
Sampling rate                       : 48.0 KHz
Compression mode                    : Lossy
Delay relative to video             : 83ms
Stream size                         : 88.6 MiB (16%)
Encoded date                        : UTC 2013-11-17 02:13:30
Tagged date                         : UTC 2013-11-17 02:13:36

-

Скриншоты




- -Если вы скачали данный релиз и хотите выложить его на другом ресурсе -
пожалуйста, указывайте первоисточник
- R.G. Video Games World


[torrentc.info]_torrent-4983397.torrent
Торрент: Зарегистрирован ·  [ 2017-02-15 09:42 ] ·  73044508901f4e62d3f6da9d84a69db220f7b7e9

12 KB

Статус: проверено
Скачан: 0 раз
Размер: 562 MB
Оценка: 
(Голосов: 0)
Сказали спасибо: 0  Спасибо
Похожие темы
[Профиль]    [ЛС]
Показать сообщения:    
Ответить на тему

Текущее время: Сегодня 15:25

Часовой пояс: GMT + 7



Вы не можете начинать темы
Вы не можете отвечать на сообщения
Вы не можете редактировать свои сообщения
Вы не можете удалять свои сообщения
Вы не можете голосовать в опросах
Вы не можете прикреплять файлы к сообщениям
Вы можете скачивать файлы